Моя фамилия Шилов (Андрей Элинсон) [2013, Остросюжетный боевик, DVB-MPG]

Ответить на тему
 
Автор Сообщение

user ®

Стаж: 7 лет 7 месяцев

Сообщений: 20008

Пост Пост: #1 от 12-Окт-2013 11:10

[Цитировать]

Моя фамилия Шилов
Жанр: Остросюжетный боевик
Год выпуска: 2013
Продолжительность: 01:31:00
Режиссёр: Андрей Элинсон
В ролях: Александр Устюгов, Сергей Перегудов, Мария Синяева, Геннадий Алимпиев, Алексей Федотов, Светлана Смирнова
Описание: Герои "Ментовских войн" Арнаутов в "Отдельном поручении" и Джексон в фильме "Просто Джексон" уже показали, на что они способны в самых сложных и рискованных ситуациях. На этот раз доказать свой высокий профессионализм и отвагу придется самому главному борцу с беззаконием - полковнику полиции Роману Шилову. После увольнения из ГУВД Шилов (Александр Устюгов) оказался не у дел. Он решает использовать внезапно появившееся свободное время для того, чтобы наконец уладить все вопросы с личной жизнью. Но встрече с Ксенией Максаковой (Светлана Смирнова), с которой он давно мечтал объясниться, мешает известие об исчезновении давнего знакомого Михаила Краснова (Сергей Перегудов), показания которого когда-то помогли посадить за решетку опасного убийцу...
Сэмпл
Качество видео: DVB
Формат видео: MPG
Видео: MPEG 2, 720х576, 4:3, 4513 Kbps, 25 fps, Bits/(Pixel*Frame): 0, 435
Аудио: MP2, 192 Kbps, 48.0 KHz, 2 ch

MediaInfo

G:\БОЕВИКИ\Моя фамилия Шилов.mpg
General
Complete name : G:\БОЕВИКИ\Моя фамилия Шилов.mpg
Format : MPEG-PS
File size : 3.06 GiB
Duration : 1h 31mn
Overall bit rate mode : Variable
Overall bit rate : 4 801 Kbps
Writing library : (c) 1998-2011 Womble Multimedia, Inc. / MPEG Video Wizard DVD 5.0.1.100 (03/2011) / May 27 2011
Video #224
ID : 224 (0xE0)
Format : MPEG Video
Format version : Version 2
Format profile : Main@Main
Format settings, BVOP : Yes
Format settings, Matrix : Custom
Format settings, GOP : M=1, N=16
Duration : 1h 31mn
Bit rate mode : Variable
Bit rate : 4 513 Kbps
Maximum bit rate : 15.0 Mbps
Width : 720 pixels
Height : 576 pixels
Display aspect ratio : 4:3
Frame rate : 25.000 fps
Standard : PAL
Color space : YUV
Chroma subsampling : 4:2:0
Bit depth : 8 bits
Scan type : Interlaced
Scan order : Top Field First
Compression mode : Lossy
Bits/(Pixel*Frame) : 0.435
Stream size : 2.88 GiB (94%)
Writing library : (c) 1998-2011 Womble Multimedia, Inc. / MPEG Video Wizard DVD 5.0.1.100 (03/2011) / May 27 2011
Audio #192
ID : 192 (0xC0)
Format : MPEG Audio
Format version : Version 1
Format profile : Layer 2
Duration : 1h 31mn
Bit rate mode : Constant
Bit rate : 192 Kbps
Channel(s) : 2 channels
Sampling rate : 48.0 KHz
Compression mode : Lossy
Stream size : 125 MiB (4%)

Скриншоты

Скачать

Скачать торрент!

Как скачивать? · Что такое торрент? · Рейтинг и ограничения

Сайт не распространяет и не хранит электронные версии произведений, а лишь предоставляет доступ к создаваемому пользователями каталогу ссылок на торрент-файлы, которые содержат только списки хеш-сумм

[Профиль] [ЛС]
Показать сообщения:    
Ответить на тему

Текущее время: Сегодня 19:42

Часовой пояс: GMT + 4



Вы не можете начинать темы
Вы не можете отвечать на сообщения
Вы не можете редактировать свои сообщения
Вы не можете удалять свои сообщения
Вы не можете голосовать в опросах
Вы не можете прикреплять файлы к сообщениям
Вы не можете скачивать файлы