Морфий (Алексей Балабанов) [2008, драма, DVDRip-AVC]

Ответить на тему
 
Автор Сообщение

user ®

Стаж: 7 лет 7 месяцев

Сообщений: 20008

Пост Пост: #1 от 12-Окт-2013 11:10

[Цитировать]

Морфий
Страна: Россия
Жанр: драма
Год выпуска: 2008
Продолжительность: 01:47:16
Субтитры: нет
Режиссёр: Алексей Балабанов
В ролях: Леонид Бичевин, Ингеборга Дапкунайте, Светлана Письмиченко, Андрей Панин, Сергей Гармаш, Алексей Полуян, Валерий Зайцев, Александр Мосин, Ирина Ракшина, Даниил Шигапов
Описание: Грустная история о молодом талантливом враче, волею случая ставшего морфиновым наркоманом. Действие разворачивается во второй половине 1917-го - начале 1918-го годов в России. Происходящие на фоне катастрофические события очень схожи с личной драмой саморазрушения русского интеллегента...
Не для семейного просмотра, фильм жесткий.
Семпл: http://multi-up.com/912320
Качество видео: DVDRip-AVC
Формат видео: MKV
Видео: 718x552@1021x552 (1.85:1), AVC (H.264), 25 fps, 1504 kbps avg, 0.152 bit/pixel
Аудио: 48 KHz, AC3, 6 ch, 448 Kbps

MediaInfo

Общее
Уникальный идентификатор : 193525091813496097279209079255341836204 (0x919793B1C68C9F878A2840E9D929A7AC)
Полное имя : D:\Кино\Морфий.mkv
Формат : Matroska
Версия формата : Version 2
Размер файла : 1,46 Гбайт
Продолжительность : 1 ч. 47 м.
Общий поток : 1951 Кбит/сек
Дата кодирования : UTC 2013-10-11 09:02:22
Программа кодирования : mkvmerge v4.0.0 ('The Stars were mine') сборка от Jun 6 2010 16:18:42
Библиотека кодирования : libebml v1.0.0 + libmatroska v1.0.0
Видео
Идентификатор : 1
Формат : AVC
Формат/Информация : Advanced Video Codec
Профиль формата : High@L4.1
Параметр CABAC формата : Да
Параметр ReFrames формата : 16 кадров
Идентификатор кодека : V_MPEG4/ISO/AVC
Продолжительность : 1 ч. 47 м.
Битрейт : 1504 Кбит/сек
Ширина : 718 пикселей
Высота : 552 пикселя
Соотношение сторон : 1,85:1
Режим частоты кадров : Постоянный
Частота кадров : 25,000 кадров/сек
Цветовое пространство : YUV
Субдискретизация насыщенности : 4:2:0
Битовая глубина : 8 бит
Тип развёртки : Прогрессивная
Бит/(Пиксели*Кадры) : 0.152
Размер потока : 1,10 Гбайт (75%)
Библиотека кодирования : x264 core 133 r2334 a3ac64b
Настройки программы : cabac=1 / ref=16 / deblock=1:-2:-1 / analyse=0x3:0x133 / me=umh / subme=10 / psy=1 / psy_rd=1.00:0.10 / mixed_ref=1 / me_range=32 / chroma_me=1 / trellis=2 / 8x8dct=1 / cqm=0 / deadzone=21,11 / fast_pskip=0 / chroma_qp_offset=-3 / threads=3 / lookahead_threads=1 / sliced_threads=0 / nr=0 / decimate=1 / interlaced=0 / bluray_compat=0 / constrained_intra=0 / bframes=10 / b_pyramid=2 / b_adapt=2 / b_bias=0 / direct=3 / weightb=1 / open_gop=0 / weightp=2 / keyint=250 / keyint_min=25 / scenecut=40 / intra_refresh=0 / rc_lookahead=60 / rc=2pass / mbtree=1 / bitrate=1504 / ratetol=1.0 / qcomp=0.60 / qpmin=10 / qpmax=51 / qpstep=4 / cplxblur=20.0 / qblur=0.5 / vbv_maxrate=50000 / vbv_bufsize=50000 / nal_hrd=none / ip_ratio=1.40 / aq=1:1.00
Default : Нет
Forced : Нет
Аудио
Идентификатор : 2
Формат : AC-3
Формат/Информация : Audio Coding 3
Расширение режима : CM (complete main)
Параметр Endianness формата : Big
Идентификатор кодека : A_AC3
Продолжительность : 1 ч. 47 м.
Вид битрейта : Постоянный
Битрейт : 448 Кбит/сек
Каналы : 6 каналов
Расположение каналов : Front: L C R, Side: L R, LFE
Частота : 48,0 КГц
Битовая глубина : 16 бит
Метод сжатия : С потерями
Размер потока : 344 Мбайт (23%)
Default : Да
Forced : Нет

Скриншоты

лог

--[Information] [11.10.2013 0:38:53] avs [info]: 718x552p 2553:1795 @ 25/1 fps (cfr)
---[Information] [11.10.2013 0:38:53] x264 [info]: using SAR=2553/1795
---[Information] [11.10.2013 0:38:53] x264 [info]: using cpu capabilities: MMX2 SSE2Fast SSEMisalign LZCNT
---[Information] [11.10.2013 0:38:53] x264 [info]: profile High, level 4.1
---[Information] [11.10.2013 9:57:51] x264 [info]: frame I:855 Avg QP:16.19 size: 58412
---[Information] [11.10.2013 9:57:51] x264 [info]: frame P:31624 Avg QP:18.74 size: 20127
---[Information] [11.10.2013 9:57:51] x264 [info]: frame B:128434 Avg QP:21.69 size: 4061
---[Information] [11.10.2013 9:57:51] x264 [info]: consecutive B-frames: 0.9% 1.7% 5.0% 14.6% 14.5% 53.5% 5.8% 1.7% 1.2% 0.3% 0.8%
---[Information] [11.10.2013 9:57:51] x264 [info]: mb I I16..4: 9.3% 70.6% 20.1%
---[Information] [11.10.2013 9:57:51] x264 [info]: mb P I16..4: 1.0% 6.2% 0.9% P16..4: 43.4% 21.9% 20.0% 0.6% 0.2% skip: 5.8%
---[Information] [11.10.2013 9:57:51] x264 [info]: mb B I16..4: 0.1% 0.5% 0.1% B16..8: 39.1% 8.0% 1.8% direct: 5.4% skip:45.2% L0:42.4% L1:44.7% BI:13.0%
---[Information] [11.10.2013 9:57:51] x264 [info]: 8x8 transform intra:75.0% inter:64.3%
---[Information] [11.10.2013 9:57:51] x264 [info]: direct mvs spatial:97.6% temporal:2.4%
---[Information] [11.10.2013 9:57:51] x264 [info]: coded y,uvDC,uvAC intra: 84.2% 77.4% 50.2% inter: 21.5% 18.8% 3.6%
---[Information] [11.10.2013 9:57:51] x264 [info]: i16 v,h,dc,p: 67% 8% 10% 15%
---[Information] [11.10.2013 9:57:51] x264 [info]: i8 v,h,dc,ddl,ddr,vr,hd,vl,hu: 22% 7% 8% 8% 11% 13% 9% 12% 10%
---[Information] [11.10.2013 9:57:51] x264 [info]: i4 v,h,dc,ddl,ddr,vr,hd,vl,hu: 21% 7% 5% 8% 12% 15% 10% 12% 10%
---[Information] [11.10.2013 9:57:51] x264 [info]: i8c dc,h,v,p: 42% 19% 26% 14%
---[Information] [11.10.2013 9:57:51] x264 [info]: Weighted P-Frames: Y:5.5% UV:1.5%
---[Information] [11.10.2013 9:57:51] x264 [info]: ref P L0: 34.4% 9.5% 19.3% 5.6% 6.6% 4.0% 4.7% 2.0% 2.6% 1.8% 2.2% 1.5% 1.8% 1.4% 1.7% 1.0%
---[Information] [11.10.2013 9:57:51] x264 [info]: ref B L0: 69.9% 12.3% 4.6% 2.6% 2.1% 1.8% 1.4% 0.9% 0.9% 0.9% 0.7% 0.7% 0.6% 0.4% 0.2%
---[Information] [11.10.2013 9:57:51] x264 [info]: ref B L1: 93.0% 7.0%
---[Information] [11.10.2013 9:57:51] x264 [info]: kb/s:1501.48
---[Information] [11.10.2013 9:57:51] encoded 160913 frames, 4.80 fps, 1501.48 kb/s
Скачать

Скачать торрент!

Как скачивать? · Что такое торрент? · Рейтинг и ограничения

Сайт не распространяет и не хранит электронные версии произведений, а лишь предоставляет доступ к создаваемому пользователями каталогу ссылок на торрент-файлы, которые содержат только списки хеш-сумм

[Профиль] [ЛС]
Показать сообщения:    
Ответить на тему

Текущее время: Сегодня 08:12

Часовой пояс: GMT + 4



Вы не можете начинать темы
Вы не можете отвечать на сообщения
Вы не можете редактировать свои сообщения
Вы не можете удалять свои сообщения
Вы не можете голосовать в опросах
Вы не можете прикреплять файлы к сообщениям
Вы не можете скачивать файлы