Штурм Белого дома / White House Down (Роланд Эммерих / Roland Emmerich) [2013, США, боевик, триллер, BDRip] Dub (BD EUR)

Ответить на тему
 
Автор Сообщение

user ®

Стаж: 7 лет 7 месяцев

Сообщений: 20008

Пост Пост: #1 от 12-Окт-2013 08:00

[Цитировать]

Штурм Белого дома / White House Down- Год выпуска: 2013
Выпущено: США
Жанр: боевик, триллер
Продолжительность: 02:11:32
Перевод: Профессиональный (полное дублирование)
Субтитры: нет-Режиссер: Роланд Эммерих / Roland Emmerich
В ролях: Ченнинг Татум, Джейми Фокс, Мэгги Джилленхол, Джейсон Кларк, Ричард Дженкинс, Джеймс Вудс, Джои Кинг, Николас Райт, Джимми Симпсон, Майкл Мерфи
О фильме: Cотрудник госбезопасности приходит вместе с дочерью в Белый дом на собеседование на должность в структуру охраны президента. И именно в этот день Белый дом атакуют некие неопознанные вооружённые силы. Офицер проявляет чудеса находчивости и отваги, пытаясь спасти жизнь своему ребёнку, себе и президенту США.
Релиз:
Автор: kingsize87
Качество: BDRip (источник: / Blu-Ray EUR / 1080р)
Формат: AVI
Видео: 720x304 (2.37:1), 23.976 fps, XviD build 65 ~1916 kbps avg, 0.36 bit/pixel
Аудио: 48 kHz, AC3 Dolby Digital, 3/2 (L,C,R,l,r) + LFE ch, ~448.00 kbps avg
Размер: 2231.01 Mb (1/2 DVD-R)
Скачать: Семпл- -

Mi


Формат : AVI
Формат/Информация : Audio Video Interleave
Профиль формата : OpenDML
Размер файла : 2,18 Гбайт
Продолжительность : 2 ч. 11 м.
Общий поток : 2371 Кбит/сек
Название фильма : Штурм Белого дома / White House Down (2013) BDRip
Режиссёр : kingsize87
Программа кодирования : VirtualDubMod 1.5.10.2 (build 2540/release)
Правообладатель : HQCLUB
Примечание : 11.10.2013
Видео
Идентификатор : 0
Формат : MPEG-4 Visual
Профиль формата : Advanced Simple@L5
Параметр BVOP формата : 1
Параметр QPel формата : Нет
Параметр GMC формата : Без точки перехода
Параметр матрицы формата : Выборочная
Идентификатор кодека : XVID
Идентификатор кодека/Подсказка : XviD
Продолжительность : 2 ч. 11 м.
Битрейт : 1911 Кбит/сек
Ширина : 720 пикселей
Высота : 304 пикселя
Соотношение сторон : 2,35:1
Частота кадров : 23,976 кадра/сек
Цветовое пространство : YUV
Субдискретизация насыщенности : 4:2:0
Битовая глубина : 8 бит
Тип развёртки : Прогрессивная
Метод сжатия : С потерями
Бит/(Пиксели*Кадры) : 0.364
Размер потока : 1,76 Гбайт (81%)
Библиотека кодирования : XviD 65
Аудио
Идентификатор : 1
Формат : AC-3
Формат/Информация : Audio Coding 3
Расширение режима : CM (complete main)
Параметр Endianness формата : Big
Идентификатор кодека : 2000
Продолжительность : 2 ч. 11 м.
Вид битрейта : Постоянный
Битрейт : 448 Кбит/сек
Каналы : 6 каналов
Расположение каналов : Front: L C R, Side: L R, LFE
Частота : 48,0 КГц
Битовая глубина : 16 бит
Метод сжатия : С потерями
Размер потока : 422 Мбайт (19%)
Выравнивание : Разделение по промежуткам
Продолжительность промежутка : 42 мс. (1,00 видеокадр)
Время предзагрузки промежутка : 500 мс.
-
Скачать

Скачать торрент!

Как скачивать? · Что такое торрент? · Рейтинг и ограничения

Сайт не распространяет и не хранит электронные версии произведений, а лишь предоставляет доступ к создаваемому пользователями каталогу ссылок на торрент-файлы, которые содержат только списки хеш-сумм

[Профиль] [ЛС]
Показать сообщения:    
Ответить на тему

Текущее время: Сегодня 03:09

Часовой пояс: GMT + 4



Вы не можете начинать темы
Вы не можете отвечать на сообщения
Вы не можете редактировать свои сообщения
Вы не можете удалять свои сообщения
Вы не можете голосовать в опросах
Вы не можете прикреплять файлы к сообщениям
Вы не можете скачивать файлы