Любовь в клубах дыма / Любовь в затяжке / Love in a Puff (Эдмонд Панг / Edmond Pang) [2010, Гонконг, мелодрама, комедия, DVDRip] VO (Kenum)

Ответить на тему
 
Автор Сообщение

user ®

Стаж: 11 лет

Сообщений: 15151

Пост Пост: #1 от 12-Окт-2013 03:25

[Цитировать]

Любовь в клубах дыма/ Любовь в затяжке / Love in a Puff
Страна: Гонконг
Жанр: мелодрама, комедия
Год выпуска: 2010
Продолжительность: 01:42:50
Перевод: Одноголосый закадровый Kenum по субтитрам mitrichojisan
Cубтитры: нет
Режиссер: Эдмонд Панг/ Edmond Pang
В ролях: Мириам Юнг/ Miriam Yeung, Шон Ю/ Shawn Yue, Ят Нин Чан / Yat Ning Chan, Тат-Минг Чунг/ Tat-Ming Cheung, Чармэйн Фонг/ Charmaine Fong, Винсент Кок/ Vincent Kok, Мэтт Чоу/ Matt Chow
Описание: Чери (Мириам Юнг) и Джимми (Шоун Ю) познакомились в уличной курилке – причем, к этому моменту Чери уже знала от других сплетников-курильщиков, что Джимми переживает измену своей девушки. Они сразу понравились друг другу, но у Чери есть бойфренд, а Джимми еще не уверен, готов ли он к новым отношениям.
Сэмпл: http://multi-up.com/912264
Качество видео: DVDRip
Формат видео: AVI
Видео: 720x304 (2.37:1), 23.976 fps, XviD build 50 ~1518 kbps avg, 0.29 bit/pixel
Аудио: 48 kHz, AC3 Dolby Digital, 3/2 (L,C,R,l,r) + LFE ch, ~448 kbps

MediaInfo

Общее
Полное имя : E:\Любовь в клубах дыма.avi
Формат : AVI
Формат/Информация : Audio Video Interleave
Размер файла : 1,42 Гбайт
Продолжительность : 1 ч. 42 м.
Общий поток : 1973 Кбит/сек
Программа кодирования : VirtualDubMod 1.5.4.1 (build 2178/release)
Библиотека кодирования : VirtualDubMod build 2178/release
Видео
Идентификатор : 0
Формат : MPEG-4 Visual
Профиль формата : Advanced Simple@L5
Параметр BVOP формата : Нет
Параметр QPel формата : Нет
Параметр GMC формата : Без точки перехода
Параметр матрицы формата : Выборочная
Идентификатор кодека : XVID
Идентификатор кодека/Подсказка : XviD
Продолжительность : 1 ч. 42 м.
Битрейт : 1518 Кбит/сек
Ширина : 720 пикселей
Высота : 304 пикселя
Соотношение сторон : 2,35:1
Частота кадров : 23,976 кадра/сек
Цветовое пространство : YUV
Субдискретизация насыщенности : 4:2:0
Битовая глубина : 8 бит
Тип развёртки : Прогрессивная
Метод сжатия : С потерями
Бит/(Пиксели*Кадры) : 0.289
Размер потока : 1,09 Гбайт (77%)
Библиотека кодирования : XviD 1.2.1 (UTC 2008-12-04)
Аудио
Идентификатор : 1
Формат : AC-3
Формат/Информация : Audio Coding 3
Расширение режима : CM (complete main)
Параметр Endianness формата : Big
Идентификатор кодека : 2000
Продолжительность : 1 ч. 42 м.
Вид битрейта : Постоянный
Битрейт : 448 Кбит/сек
Каналы : 6 каналов
Расположение каналов : Front: L C R, Side: L R, LFE
Частота : 48,0 КГц
Битовая глубина : 16 бит
Метод сжатия : С потерями
Размер потока : 330 Мбайт (23%)
Выравнивание : Разделение по промежуткам
Продолжительность промежутка : 96 мс. (2,30 видеокадра)
Время предзагрузки промежутка : 96 мс.
Язык : Russian

Скриншот c названием фильма

Скриншоты

Скачать

Скачать торрент! Любовь в клубах дыма / Любовь в затяжке / Love in a Puff (Эдмонд Панг / Edmond Pang) [2010, Гонконг, мелодрама, комедия, DVDRip] VO (Kenum)

Как скачивать? · Что такое торрент? · Рейтинг и ограничения

Сайт не распространяет и не хранит электронные версии произведений, а лишь предоставляет доступ к создаваемому пользователями каталогу ссылок на торрент-файлы, которые содержат только списки хеш-сумм

[Профиль] [ЛС]
Показать сообщения:    
Ответить на тему

Текущее время: Сегодня 05:04

Часовой пояс: GMT + 4



Вы не можете начинать темы
Вы не можете отвечать на сообщения
Вы не можете редактировать свои сообщения
Вы не можете удалять свои сообщения
Вы не можете голосовать в опросах
Вы не можете прикреплять файлы к сообщениям
Вы не можете скачивать файлы