Туман (Иван Шурховецкий, Артём Аксененко) [2010, фантастика, драма, военный, DVDRip]

Ответить на тему
 
Автор Сообщение

user ®

Стаж: 7 лет 7 месяцев

Сообщений: 20008

Пост Пост: #1 от 12-Окт-2013 03:25

[Цитировать]

Туман
Жанр: фантастика, драма, военный
Год выпуска: 2010
Продолжительность: 02:31:16
Режиссёр: Иван Шурховецкий, Артём Аксененко
В ролях:
Игорь Шмаков - Патрон / сержант Пётр Силантьев
Василий Ракша - рядовой Павел Рюмин
Артём Крестников - Фанат / рядовой Сергей Валеев
Григорий Калинин - Ферштейн / рядовой Завадский
Алексей Марков - Яндекс / рядовой Дмитрий Борщов
Илья Глинников - Бабник / рядовой Антон Чирко
Родион Галюченко - Муха / рядовой Мухин
Дмитрий Сергин - Артист / рядовой Миронов
Иван Лапин - рядовой Михновец
Алексей Ильин - старший лейтенант Корзун
Арчибальд Арчибальдович - подполковник
Анастасия Безбородова - Катерина
Светлана Устинова - Настя
Евгений Куршинский - командир партизанского отряда
Дмитрий Росляков - партизан Глухов
Описание:
Отряд молодых бойцов Российской Армии отрывается от основного строя во время марш-броска, дабы сократить путь, бежит наперерез, но попадает в туман, который переносит его в прошлое, в годы Великой Отечественной Войны. Ребята, видевшие войну только в кино, попадают в лапы безжалостных событий того времени. Всё на грани: храбрость, страх, любовь, ненависть, жизнь, смерть. И некогда задавать вопросы. Живи, дерись за Родину - она одна на все времена.
Доп. информация:
Туман, сквозь который герои попадают в прошлое, создавался пиротехниками. Из-за него у съёмочной группы слезились глаза и было трудно дышать.
Немецких солдат озвучивали немецкие актёры и историки, используя немецкий язык, на котором говорили во времена Второй Мировой войны.
Сэмпл: http://multi-up.com/912256
Качество видео: DVDRip
Формат видео: AVI
Видео: Xvid / 720x368 / 16:9 / 25 fps / 1836 kbps
Аудио: AC-3 / 48 kHz / 2.0 / 224 kbps

MediaInfo

General
Complete name : D:\Films\Туман (2010) DVDRip.avi
Format : AVI
Format/Info : Audio Video Interleave
Format profile : OpenDML
File size : 2.19 GiB
Duration : 2h 31mn
Overall bit rate : 2 072 Kbps
Writing application : VirtualDubMod 1.5.10.2 (build 2540/release)
Writing library : VirtualDubMod build 2540/release
Video
ID : 0
Format : MPEG-4 Visual
Format profile : Advanced Simple@L5
Format settings, BVOP : Yes
Format settings, QPel : No
Format settings, GMC : No warppoints
Format settings, Matrix : Default (MPEG)
Codec ID : XVID
Codec ID/Hint : XviD
Duration : 2h 31mn
Bit rate : 1 836 Kbps
Width : 720 pixels
Height : 368 pixels
Display aspect ratio : 1.957
Frame rate : 25.000 fps
Color space : YUV
Chroma subsampling : 4:2:0
Bit depth : 8 bits
Scan type : Progressive
Compression mode : Lossy
Bits/(Pixel*Frame) : 0.277
Stream size : 1.94 GiB (89%)
Writing library : XviD 1.2.1 (UTC 2008-12-04)
Audio
ID : 1
Format : AC-3
Format/Info : Audio Coding 3
Mode extension : CM (complete main)
Format settings, Endianness : Big
Codec ID : 2000
Duration : 2h 31mn
Bit rate mode : Constant
Bit rate : 224 Kbps
Channel count : 2 channels
Channel positions : Front: L R
Sampling rate : 48.0 KHz
Bit depth : 16 bits
Compression mode : Lossy
Stream size : 242 MiB (11%)
Alignment : Split accross interleaves
Interleave, duration : 40 ms (1.00 video frame)
Interleave, preload duration : 500 ms

Скриншот c названием фильма

Скриншоты

Скачать

Скачать торрент!

Как скачивать? · Что такое торрент? · Рейтинг и ограничения

Сайт не распространяет и не хранит электронные версии произведений, а лишь предоставляет доступ к создаваемому пользователями каталогу ссылок на торрент-файлы, которые содержат только списки хеш-сумм

[Профиль] [ЛС]
Показать сообщения:    
Ответить на тему

Текущее время: Сегодня 10:40

Часовой пояс: GMT + 4



Вы не можете начинать темы
Вы не можете отвечать на сообщения
Вы не можете редактировать свои сообщения
Вы не можете удалять свои сообщения
Вы не можете голосовать в опросах
Вы не можете прикреплять файлы к сообщениям
Вы не можете скачивать файлы