Ночной поезд до Лиссабона / Night Train to Lisbon (Билле Аугуст / Bille August) [2013, Германия, Швейцария, Португалия, триллер, мелодрама, детектив, HDRip] DVO

Ответить на тему
 
Автор Сообщение

user ®

Стаж: 7 лет 7 месяцев

Сообщений: 20008

Пост Пост: #1 от 12-Окт-2013 03:25

[Цитировать]

Ночной поезд до Лиссабона / Night Train to Lisbon
Страна: Германия, Швейцария, Португалия
Жанр: триллер, мелодрама, детектив
Год выпуска: 2013
Продолжительность: 01:46:30
Перевод: Любительский (двухголосый закадровый) HamsterStudio
Cубтитры: нет
Режиссер: Билле Аугуст / Bille August
В ролях: Джереми Айронс, Мелани Лоран, Джек Хьюстон, Мартина Гедек, Лена Улин, Аугуст Диль, Бруно Ганц, Кристофер Ли, Шарлотта Рэмплинг, Том Кортни
Описание: Раймунд Григориус, швейцарский профессор древних языков, спасает португальскую женщину от самоубийства и находит у нее книгу, написанную португальским автором Амадеу ди Праду, о сопротивлении диктаторскому режиму Антонио ди Оливейра Салазара. Полностью поглощенный книгой главный герой посвящает свою жизнь изучению португальской истории в целом, и в часности работам Амадеу ди Праду...

Сэмпл: http://multi-up.com/912192
Качество видео: HDRip
Формат видео: AVI
Видео: XviD, 720x384, 25 fps, 1505 Kbit/s
Аудио: AC3, 48 KHz, 448 kb/s (6 ch)

MediaInfo

Общее
Полное имя : D:\Night.Train.to.Lisbon_2013.HDRip.avi
Формат : AVI
Формат/Информация : Audio Video Interleave
Размер файла : 1,46 Гбайт
Продолжительность : 1 ч. 46 м.
Общий поток : 1964 Кбит/сек
Программа кодирования : VirtualDubMod 1.5.10.2 (build 2540/release)
Библиотека кодирования : VirtualDubMod build 2540/release
Видео
Идентификатор : 0
Формат : MPEG-4 Visual
Профиль формата : Advanced Simple@L5
Параметр BVOP формата : 2
Параметр QPel формата : Нет
Параметр GMC формата : Без точки перехода
Параметр матрицы формата : Default (MPEG)
Идентификатор кодека : XVID
Идентификатор кодека/Подсказка : XviD
Продолжительность : 1 ч. 46 м.
Битрейт : 1506 Кбит/сек
Ширина : 720 пикселей
Высота : 384 пикселя
Соотношение сторон : 1,85:1
Частота кадров : 25,000 кадров/сек
Цветовое пространство : YUV
Субдискретизация насыщенности : 4:2:0
Битовая глубина : 8 бит
Тип развёртки : Прогрессивная
Метод сжатия : С потерями
Бит/(Пиксели*Кадры) : 0.218
Размер потока : 1,12 Гбайт (77%)
Библиотека кодирования : XviD 1.2.1 (UTC 2008-12-04)
Аудио
Идентификатор : 1
Формат : AC-3
Формат/Информация : Audio Coding 3
Расширение режима : CM (complete main)
Параметр Endianness формата : Big
Идентификатор кодека : 2000
Продолжительность : 1 ч. 46 м.
Вид битрейта : Постоянный
Битрейт : 448 Кбит/сек
Каналы : 6 каналов
Расположение каналов : Front: L C R, Side: L R, LFE
Частота : 48,0 КГц
Битовая глубина : 16 бит
Метод сжатия : С потерями
Размер потока : 341 Мбайт (23%)
Выравнивание : Разделение по промежуткам
Продолжительность промежутка : 40 мс. (1,00 видеокадр)
Время предзагрузки промежутка : 500 мс.

Скриншот c названием фильма

Скриншоты

Скачать

Скачать торрент!

Как скачивать? · Что такое торрент? · Рейтинг и ограничения

Сайт не распространяет и не хранит электронные версии произведений, а лишь предоставляет доступ к создаваемому пользователями каталогу ссылок на торрент-файлы, которые содержат только списки хеш-сумм

[Профиль] [ЛС]
Показать сообщения:    
Ответить на тему

Текущее время: Сегодня 01:48

Часовой пояс: GMT + 4



Вы не можете начинать темы
Вы не можете отвечать на сообщения
Вы не можете редактировать свои сообщения
Вы не можете удалять свои сообщения
Вы не можете голосовать в опросах
Вы не можете прикреплять файлы к сообщениям
Вы не можете скачивать файлы