Кадры / The Internship (Шон Леви / Shawn Levy) [2013, США, комедия, BDRip-AVC] [Расширенная версия / Unrated] Dub + Sub Rus, Eng + Original Eng

Ответить на тему
 
Автор Сообщение

user ®

Стаж: 7 лет 7 месяцев

Сообщений: 20008

Пост Пост: #1 от 12-Окт-2013 03:25

[Цитировать]

Кадры / The InternshipРасширенная версия / Unrated«Решают всё»- Страна: США
Жанр: комедия
Год выпуска: 2013
Продолжительность: 2h 5mn 1s
Перевод: Профессиональный (дублированный)
Cубтитры: Rus, Eng, Ukr SRT
Оригинальная аудиодорожка: английский
Режиссер: Шон Леви / Shawn Levy
В ролях:
Винс Вон / Vince Vaughn
Оуэн Уилсон / Owen Wilson
Роуз Бирн, Макс Мингелла, Аасиф Мандви, Джош Бренер, Дилан О’Брайэн, Тия Сиркар, Тобит Рафаэль, Джош Гад, Пётр Иващенко, Илья Бледный, Даниил Эльдаров, Прохор Чеховской, Василиса Эльдарова-ОписаниеБилли и Ник всю жизнь занимаются продажами. Но новый компьютерный мир рушит их карьеру. Стараясь доказать, что они не отстали от жизни, они бросают вызов судьбе, получив желанную стажировку в компании Google вместе с командой лучших студентов колледжей. Но получить доступ в этот фантастический мир - это только половина дела. Сейчас им придется выдержать конкуренцию с самыми лучшими техническими гениями, чтобы доказать, что необходимость - это мать обновления.-Сэмпл

IMDb: 6.30 (26 807)
Качество видео: BDRip-AVC The.Internship.2013.2-In-1.1080p.BluRay.AVC.DTS-HD.MA.5.1-PublicHD
Формат видео: MKV
Видео: AVC 2570 Kbps 1072 x 456 (2.351) 23.976 fps
Аудио: AC-3 384 Kbps 6 channels, 48.0 KHz Rus
Аудио 2: AC-3 384 Kbps 6 channels, 48.0 KHz Eng
Формат субтитров: softsub (SRT)

MediaInfo | Log

Log

raw [info]: 1072x456p 1:1 @ 2500000/104271 fps (cfr)
x264 [info]: using SAR=1/1
x264 [info]: using cpu capabilities: MMX2 SSE2Fast SSSE3 SSE4.2 AVX
x264 [info]: profile High, level 4.1
x264 [info]: frame I:2290 Avg QP:13.61 size:102330
x264 [info]: frame P:44188 Avg QP:17.44 size: 28798
x264 [info]: frame B:133376 Avg QP:21.09 size: 6753
x264 [info]: consecutive B-frames: 3.8% 4.5% 8.3% 35.8% 14.9% 22.8% 4.4% 4.3% 1.2%
x264 [info]: mb I I16..4: 7.7% 61.1% 31.2%
x264 [info]: mb P I16..4: 0.9% 9.0% 2.1% P16..4: 27.8% 33.2% 15.3% 3.6% 0.6% skip: 7.4%
x264 [info]: mb B I16..4: 0.1% 0.9% 0.2% B16..8: 33.1% 19.3% 3.5% direct: 3.9% skip:39.0% L0:41.7% L1:43.8% BI:14.5%
x264 [info]: 8x8 transform intra:71.8% inter:58.1%
x264 [info]: direct mvs spatial:97.7% temporal:2.3%
x264 [info]: coded y,uvDC,uvAC intra: 87.1% 90.7% 76.5% inter: 20.4% 20.4% 8.8%
x264 [info]: i16 v,h,dc,p: 31% 14% 6% 49%
x264 [info]: i8 v,h,dc,ddl,ddr,vr,hd,vl,hu: 15% 9% 6% 9% 12% 13% 12% 12% 12%
x264 [info]: i4 v,h,dc,ddl,ddr,vr,hd,vl,hu: 17% 10% 5% 8% 13% 14% 12% 10% 11%
x264 [info]: i8c dc,h,v,p: 41% 20% 21% 18%
x264 [info]: Weighted P-Frames: Y:1.7% UV:1.1%
x264 [info]: ref P L0: 49.7% 11.2% 15.3% 6.4% 5.0% 3.6% 2.9% 1.7% 1.5% 1.3% 1.3% 0.2% 0.0%
x264 [info]: ref B L0: 77.9% 9.8% 4.6% 2.3% 2.3% 1.2% 0.9% 0.5% 0.3% 0.2%
x264 [info]: ref B L1: 93.5% 6.5%
x264 [info]: kb/s:2567.50
x264 [total]: encoded 179854 frames, 12.23 fps, 2567.50 kb/s
Format : Matroska
Format version : Version 4 / Version 2
File size : 2.92 GiB
Duration : 2h 5mn
Overall bit rate : 3 338 Kbps
Encoded date : UTC 2013-10-11 19:12:13
Writing application : mkvmerge v6.4.1 ('Omega Point') built on Sep 16 2013 22:05:10
Writing library : libebml v1.3.0 + libmatroska v1.4.1
Video
ID : 1
Format : AVC
Format/Info : Advanced Video Codec
Format profile : High@L4.1
Format settings, CABAC : Yes
Format settings, ReFrames : 11 frames
Codec ID : V_MPEG4/ISO/AVC
Duration : 2h 5mn
Bit rate : 2 570 Kbps
Width : 1 072 pixels
Height : 456 pixels
Display aspect ratio : 2.35:1
Frame rate mode : Constant
Frame rate : 23.976 fps
Color space : YUV
Chroma subsampling : 4:2:0
Bit depth : 8 bits
Scan type : Progressive
Bits/(Pixel*Frame) : 0.219
Stream size : 2.19 GiB (75%)
Writing library : x264 core 138 r2358 9e941d1
Encoding settings : cabac=1 / ref=11 / deblock=1:-2:-1 / analyse=0x3:0x133 / me=umh / subme=11 / psy=1 / psy_rd=1.00:0.05 / mixed_ref=1 / me_range=32 / chroma_me=1 / trellis=2 / 8x8dct=1 / cqm=0 / deadzone=21,11 / fast_pskip=0 / chroma_qp_offset=-3 / threads=12 / lookahead_threads=2 / sliced_threads=0 / nr=0 / decimate=1 / interlaced=0 / bluray_compat=0 / constrained_intra=0 / bframes=8 / b_pyramid=2 / b_adapt=2 / b_bias=0 / direct=3 / weightb=1 / open_gop=0 / weightp=2 / keyint=250 / keyint_min=23 / scenecut=40 / intra_refresh=0 / rc_lookahead=60 / rc=2pass / mbtree=1 / bitrate=2570 / ratetol=1.0 / qcomp=0.60 / qpmin=0 / qpmax=69 / qpstep=4 / cplxblur=20.0 / qblur=0.5 / ip_ratio=1.40 / aq=1:1.00
Language : English
Default : Yes
Forced : No
Audio #1
ID : 2
Format : AC-3
Format/Info : Audio Coding 3
Mode extension : CM (complete main)
Format settings, Endianness : Big
Codec ID : A_AC3
Duration : 2h 5mn
Bit rate mode : Constant
Bit rate : 384 Kbps
Channel(s) : 6 channels
Channel positions : Front: L C R, Side: L R, LFE
Sampling rate : 48.0 KHz
Bit depth : 16 bits
Compression mode : Lossy
Stream size : 343 MiB (12%)
Title : Rus (Dub)
Language : Russian
Default : Yes
Forced : No
Audio #2
ID : 3
Format : AC-3
Format/Info : Audio Coding 3
Mode extension : CM (complete main)
Format settings, Endianness : Big
Codec ID : A_AC3
Duration : 2h 5mn
Bit rate mode : Constant
Bit rate : 384 Kbps
Channel(s) : 6 channels
Channel positions : Front: L C R, Side: L R, LFE
Sampling rate : 48.0 KHz
Bit depth : 16 bits
Compression mode : Lossy
Stream size : 343 MiB (12%)
Title : Eng (Original)
Language : English
Default : No
Forced : No
Text #1
ID : 4
Format : UTF-8
Codec ID : S_TEXT/UTF8
Codec ID/Info : UTF-8 Plain Text
Title : Rus
Language : Russian
Default : No
Forced : No
Text #2
ID : 5
Format : UTF-8
Codec ID : S_TEXT/UTF8
Codec ID/Info : UTF-8 Plain Text
Title : Eng (Original)
Language : English
Default : No
Forced : No
Text #3
ID : 6
Format : UTF-8
Codec ID : S_TEXT/UTF8
Codec ID/Info : UTF-8 Plain Text
Title : Ukr
Language : Ukrainian
Default : No
Forced : No

Скриншоты

Скачать

Скачать торрент!

Как скачивать? · Что такое торрент? · Рейтинг и ограничения

Сайт не распространяет и не хранит электронные версии произведений, а лишь предоставляет доступ к создаваемому пользователями каталогу ссылок на торрент-файлы, которые содержат только списки хеш-сумм

[Профиль] [ЛС]
Показать сообщения:    
Ответить на тему

Текущее время: Сегодня 22:39

Часовой пояс: GMT + 4



Вы не можете начинать темы
Вы не можете отвечать на сообщения
Вы не можете редактировать свои сообщения
Вы не можете удалять свои сообщения
Вы не можете голосовать в опросах
Вы не можете прикреплять файлы к сообщениям
Вы не можете скачивать файлы