Четвёртый вид / The Fourth Kind (Олатунде Осунсанми / Olatunde Osunsanmi) [2009, США, Великобритания, ужасы, фантастика, триллер, детектив, BDRip 720p] Dub + original eng

Ответить на тему
 
Автор Сообщение

user ®

Стаж: 7 лет 7 месяцев

Сообщений: 20008

Пост Пост: #1 от 12-Окт-2013 00:15

[Цитировать]

Четвёртый вид / The Fourth Kind
Страна: США, Великобритания
Жанр: ужасы, фантастика, триллер, детектив
Год выпуска: 2009
Продолжительность: 01:38:00
Перевод: Профессиональный (полное дублирование)
Оригинальная аудиодорожка: английский
Режиссер: Олатунде Осунсанми / Olatunde Osunsanmi
В ролях: Милла Йовович, Уилл Пэттон, Хаким Кае-Казим, Кори Джонсон, Энцо Чиленти, Элиас Котеас, Эрик Лорен, Мия МакКенна-Брюс, Рафаэль Коулмэн, Дафна Александр
Описание: На территории Аляски происходят необъяснимые исчезновения людей. Несмотря на все усилия ФБР, расследования зашли в тупик, и тайна, по-прежнему, не раскрыта. Психиатр Эбигейл Тайлер начинает записывать на видео беседы со своими пациентами и обнаруживает нечто очень страшное и пугающее…
Сэмпл: http://multi-up.com/912151
Тип релиза: BDRip 720p
Контейнер: MKV
Видео: 1280x544, 23.976fps, x264, 5483 kbps
Аудио: (RUS) AC-3 5.1, 48 kHz, 16 bits, 448 kbps
Аудио: (ENG) AC-3 5.1, 48 kHz, 16 bits, 448 kbps
Cубтитры: русские, английские

MediaInfo

Общее
Уникальный идентификатор : 236719671128879390829825925337674767216 (0xB2168CE0CE39B6F6ADF75521C0AD5B70)
Полное имя : F:\The.Fourth.Kind.2009.D.Rus.Eng.BDRip.720p.x264.mkv
Формат : Matroska
Версия формата : Version 2
Размер файла : 4,36 Гбайт
Продолжительность : 1 ч. 38 м.
Общий поток : 6373 Кбит/сек
Дата кодирования : UTC 2013-10-11 15:25:17
Программа кодирования : mkvmerge v6.4.1 ('Omega Point') built on Sep 16 2013 22:05:10
Библиотека кодирования : libebml v1.3.0 + libmatroska v1.4.1
Видео
Идентификатор : 1
Формат : AVC
Формат/Информация : Advanced Video Codec
Профиль формата : High@L4.1
Параметр CABAC формата : Да
Параметр ReFrames формата : 12 кадров
Идентификатор кодека : V_MPEG4/ISO/AVC
Продолжительность : 1 ч. 38 м.
Битрейт : 5483 Кбит/сек
Ширина : 1280 пикселей
Высота : 544 пикселя
Соотношение сторон : 2,35:1
Режим частоты кадров : Постоянный
Частота кадров : 23,976 кадра/сек
Цветовое пространство : YUV
Субдискретизация насыщенности : 4:2:0
Битовая глубина : 8 бит
Тип развёртки : Прогрессивная
Бит/(Пиксели*Кадры) : 0.328
Размер потока : 3,66 Гбайт (84%)
Библиотека кодирования : x264 core 133 r2334 a3ac64b
Настройки программы : cabac=1 / ref=12 / deblock=1:0:0 / analyse=0x3:0x113 / me=umh / subme=11 / psy=1 / psy_rd=1.00:0.10 / mixed_ref=1 / me_range=64 / chroma_me=1 / trellis=2 / 8x8dct=1 / cqm=0 / deadzone=21,11 / fast_pskip=0 / chroma_qp_offset=-3 / threads=9 / lookahead_threads=2 / sliced_threads=0 / nr=0 / decimate=0 / interlaced=0 / bluray_compat=0 / constrained_intra=0 / bframes=14 / b_pyramid=2 / b_adapt=2 / b_bias=0 / direct=3 / weightb=1 / open_gop=0 / weightp=2 / keyint=240 / keyint_min=23 / scenecut=40 / intra_refresh=0 / rc_lookahead=70 / rc=2pass / mbtree=1 / bitrate=5483 / ratetol=2.0 / qcomp=0.60 / qpmin=0 / qpmax=51 / qpstep=4 / cplxblur=20.0 / qblur=0.5 / ip_ratio=1.40 / aq=1:1.00
Язык : English
Default : Да
Forced : Нет
Аудио #1
Идентификатор : 2
Формат : AC-3
Формат/Информация : Audio Coding 3
Расширение режима : CM (complete main)
Параметр Endianness формата : Big
Идентификатор кодека : A_AC3
Продолжительность : 1 ч. 38 м.
Вид битрейта : Постоянный
Битрейт : 448 Кбит/сек
Каналы : 6 каналов
Расположение каналов : Front: L C R, Side: L R, LFE
Частота : 48,0 КГц
Битовая глубина : 16 бит
Метод сжатия : С потерями
Размер потока : 314 Мбайт (7%)
Язык : Russian
Default : Да
Forced : Нет
Аудио #2
Идентификатор : 3
Формат : AC-3
Формат/Информация : Audio Coding 3
Расширение режима : CM (complete main)
Параметр Endianness формата : Big
Идентификатор кодека : A_AC3
Продолжительность : 1 ч. 38 м.
Вид битрейта : Постоянный
Битрейт : 448 Кбит/сек
Каналы : 6 каналов
Расположение каналов : Front: L C R, Side: L R, LFE
Частота : 48,0 КГц
Битовая глубина : 16 бит
Метод сжатия : С потерями
Размер потока : 314 Мбайт (7%)
Язык : English
Default : Нет
Forced : Нет
Текст #1
Идентификатор : 4
Формат : UTF-8
Идентификатор кодека : S_TEXT/UTF8
Идентификатор кодека/Информация : UTF-8 Plain Text
Язык : Russian
Default : Нет
Forced : Нет
Текст #2
Идентификатор : 5
Формат : UTF-8
Идентификатор кодека : S_TEXT/UTF8
Идентификатор кодека/Информация : UTF-8 Plain Text
Язык : English
Default : Нет
Forced : Нет
Меню
00:00:00.000 : :Chapter 01
00:01:42.226 : :Chapter 02
00:08:16.703 : :Chapter 03
00:13:53.205 : :Chapter 04
00:19:54.777 : :Chapter 05
00:24:25.297 : :Chapter 06
00:28:32.960 : :Chapter 07
00:33:37.473 : :Chapter 08
00:36:56.755 : :Chapter 09
00:43:03.498 : :Chapter 10
00:47:29.679 : :Chapter 11
00:52:42.576 : :Chapter 12
00:56:45.443 : :Chapter 13
01:01:00.782 : :Chapter 14
01:05:16.454 : :Chapter 15
01:09:48.350 : :Chapter 16
01:14:15.242 : :Chapter 17
01:20:38.375 : :Chapter 18
01:27:30.537 : :Chapter 19
01:32:21.368 : :Chapter 20

Скриншот с названием

Скриншоты

Скачать

Скачать торрент!

Как скачивать? · Что такое торрент? · Рейтинг и ограничения

Сайт не распространяет и не хранит электронные версии произведений, а лишь предоставляет доступ к создаваемому пользователями каталогу ссылок на торрент-файлы, которые содержат только списки хеш-сумм

[Профиль] [ЛС]
Показать сообщения:    
Ответить на тему

Текущее время: Сегодня 22:28

Часовой пояс: GMT + 4



Вы не можете начинать темы
Вы не можете отвечать на сообщения
Вы не можете редактировать свои сообщения
Вы не можете удалять свои сообщения
Вы не можете голосовать в опросах
Вы не можете прикреплять файлы к сообщениям
Вы не можете скачивать файлы