Что-то не так с Кевином / We Need to Talk About Kevin (Линн Рэмзи / Lynne Ramsay) [2011, Великобритания, США, триллер, драма, BDRip 1080p] MVO (Лицензия) + DVO (П. Гланц и И. Королёва) + AVO (Ю. Сербин) + original eng

Ответить на тему
 
Автор Сообщение

user ®

Стаж: 7 лет 7 месяцев

Сообщений: 20008

Пост Пост: #1 от 11-Окт-2013 21:05

[Цитировать]

Что-то не так с Кевином / We Need to Talk About Kevin
Страна: Великобритания, США
Жанр: триллер, драма
Год выпуска: 2011
Продолжительность: 01:51:58
Перевод #1: Профессиональный (многоголосый закадровый) [Лицензия]
Перевод #2: Профессиональный (двухголосый закадровый) [Пётр Гланц и Инна Королёва]
Перевод #3: Авторский (одноголосый закадровый) [Юрий Сербин]
Оригинальная аудиодорожка: английский
Режиссер: Линн Рэмзи / Lynne Ramsay
В ролях: Тильда Суинтон, Эзра Миллер, Джон Си Райли, Джаспер Ньюэлл, Рок Дер, Эшли Герасимович, Шиван Фэллон, Алекс Манетт, Кеннет Франклин, Лесли Лайлс
Описание: Отложив в сторону все личные и профессиональные амбиции, Ева посвящает жизнь рождению и воспитанию сына. Однако их отношения с самого начала оказываются крайне сложными. В пятнадцать лет Кевин совершает непоправимое, и Ева мучается сознанием ответственности и собственной вины. Достаточно ли она любила своего сына? Какова доля ее вины в происшедшем?..
Сэмпл: http://multi-up.com/912019
Тип релиза: BDRip 1080p
Контейнер: MKV
Видео: 1920x804, 24.000fps, x264, 9626 kbps
Аудио: AC-3 5.1, 48 kHz, 16 bits, 448 kbps (RUS, MVO)
Аудио: AC-3 5.1, 48 kHz, 16 bits, 448 kbps (RUS, DVO)
Аудио: AC-3 5.1, 48 kHz, 16 bits, 448 kbps (RUS, AVO)
Аудио: AC-3 5.1, 48 kHz, 16 bits, 448 kbps (ENG)
Cубтитры: русские, английские

MediaInfo

Общее
Уникальный идентификатор : 237603166503485570234508966155522255944 (0xB2C0B4902E5C388887404EEFA541AC48)
Полное имя : F:\We.Need.to.Talk.About.Kevin.2011.P.P2.L1.Rus.Eng.BDRip.1080p.x264.mkv
Формат : Matroska
Версия формата : Version 2
Размер файла : 8,93 Гбайт
Продолжительность : 1 ч. 51 м.
Общий поток : 11,4 Мбит/сек
Дата кодирования : UTC 2013-10-11 06:46:51
Программа кодирования : mkvmerge v6.4.1 ('Omega Point') built on Sep 16 2013 22:05:10
Библиотека кодирования : libebml v1.3.0 + libmatroska v1.4.1
Видео
Идентификатор : 1
Формат : AVC
Формат/Информация : Advanced Video Codec
Профиль формата : High@L4.1
Параметр CABAC формата : Да
Параметр ReFrames формата : 5 кадров
Идентификатор кодека : V_MPEG4/ISO/AVC
Продолжительность : 1 ч. 51 м.
Битрейт : 9626 Кбит/сек
Ширина : 1920 пикселей
Высота : 804 пикселя
Соотношение сторон : 2,40:1
Режим частоты кадров : Постоянный
Частота кадров : 24,000 кадра/сек
Цветовое пространство : YUV
Субдискретизация насыщенности : 4:2:0
Битовая глубина : 8 бит
Тип развёртки : Прогрессивная
Бит/(Пиксели*Кадры) : 0.260
Размер потока : 7,35 Гбайт (82%)
Библиотека кодирования : x264 core 115 r2008 4c552d8
Настройки программы : cabac=1 / ref=5 / deblock=1:-3:-3 / analyse=0x3:0x113 / me=umh / subme=10 / psy=1 / psy_rd=1.10:0.15 / mixed_ref=1 / me_range=32 / chroma_me=1 / trellis=2 / 8x8dct=1 / cqm=2 / deadzone=21,11 / fast_pskip=0 / chroma_qp_offset=-2 / threads=12 / sliced_threads=0 / nr=0 / decimate=1 / interlaced=0 / bluray_compat=0 / constrained_intra=0 / bframes=6 / b_pyramid=2 / b_adapt=2 / b_bias=0 / direct=3 / weightb=1 / open_gop=0 / weightp=2 / keyint=250 / keyint_min=24 / scenecut=40 / intra_refresh=0 / rc_lookahead=60 / rc=2pass / mbtree=1 / bitrate=9626 / ratetol=1.0 / qcomp=0.60 / qpmin=1 / qpmax=63 / qpstep=4 / cplxblur=20.0 / qblur=0.5 / vbv_maxrate=40000 / vbv_bufsize=30000 / nal_hrd=none / ip_ratio=1.40 / aq=1:0.80
Язык : English
Default : Да
Forced : Нет
Аудио #1
Идентификатор : 2
Формат : AC-3
Формат/Информация : Audio Coding 3
Расширение режима : CM (complete main)
Параметр Endianness формата : Big
Идентификатор кодека : A_AC3
Продолжительность : 1 ч. 51 м.
Вид битрейта : Постоянный
Битрейт : 448 Кбит/сек
Каналы : 6 каналов
Расположение каналов : Front: L C R, Side: L R, LFE
Частота : 48,0 КГц
Битовая глубина : 16 бит
Метод сжатия : С потерями
Размер потока : 359 Мбайт (4%)
Язык : Russian
Default : Да
Forced : Нет
Аудио #2
Идентификатор : 3
Формат : AC-3
Формат/Информация : Audio Coding 3
Расширение режима : CM (complete main)
Параметр Endianness формата : Big
Идентификатор кодека : A_AC3
Продолжительность : 1 ч. 51 м.
Вид битрейта : Постоянный
Битрейт : 448 Кбит/сек
Каналы : 6 каналов
Расположение каналов : Front: L C R, Side: L R, LFE
Частота : 48,0 КГц
Битовая глубина : 16 бит
Метод сжатия : С потерями
Размер потока : 359 Мбайт (4%)
Язык : Russian
Default : Нет
Forced : Нет
Аудио #3
Идентификатор : 4
Формат : AC-3
Формат/Информация : Audio Coding 3
Расширение режима : CM (complete main)
Параметр Endianness формата : Big
Идентификатор кодека : A_AC3
Продолжительность : 1 ч. 51 м.
Вид битрейта : Постоянный
Битрейт : 448 Кбит/сек
Каналы : 6 каналов
Расположение каналов : Front: L C R, Side: L R, LFE
Частота : 48,0 КГц
Битовая глубина : 16 бит
Метод сжатия : С потерями
Размер потока : 359 Мбайт (4%)
Язык : Russian
Default : Нет
Forced : Нет
Аудио #4
Идентификатор : 5
Формат : AC-3
Формат/Информация : Audio Coding 3
Расширение режима : CM (complete main)
Параметр Endianness формата : Big
Идентификатор кодека : A_AC3
Продолжительность : 1 ч. 51 м.
Вид битрейта : Постоянный
Битрейт : 448 Кбит/сек
Каналы : 6 каналов
Расположение каналов : Front: L C R, Side: L R, LFE
Частота : 48,0 КГц
Битовая глубина : 16 бит
Метод сжатия : С потерями
Размер потока : 359 Мбайт (4%)
Язык : English
Default : Нет
Forced : Нет
Текст #1
Идентификатор : 6
Формат : UTF-8
Идентификатор кодека : S_TEXT/UTF8
Идентификатор кодека/Информация : UTF-8 Plain Text
Язык : Russian
Default : Нет
Forced : Нет
Текст #2
Идентификатор : 7
Формат : UTF-8
Идентификатор кодека : S_TEXT/UTF8
Идентификатор кодека/Информация : UTF-8 Plain Text
Язык : English
Default : Нет
Forced : Нет
Меню
00:00:00.000 : en:00:00:00.000
00:06:55.000 : en:00:06:55.000
00:12:29.625 : en:00:12:29.625
00:20:26.000 : en:00:20:26.000
00:29:07.625 : en:00:29:07.625
00:38:43.000 : en:00:38:43.000
00:47:12.625 : en:00:47:12.625
00:58:42.000 : en:00:58:42.000
01:09:20.625 : en:01:09:20.625
01:21:01.625 : en:01:21:01.625
01:33:01.625 : en:01:33:01.625
01:47:07.625 : en:01:47:07.625

Скриншот с названием

Скриншоты

Скачать

Скачать торрент!

Как скачивать? · Что такое торрент? · Рейтинг и ограничения

Сайт не распространяет и не хранит электронные версии произведений, а лишь предоставляет доступ к создаваемому пользователями каталогу ссылок на торрент-файлы, которые содержат только списки хеш-сумм

[Профиль] [ЛС]
Показать сообщения:    
Ответить на тему

Текущее время: Сегодня 02:14

Часовой пояс: GMT + 4



Вы не можете начинать темы
Вы не можете отвечать на сообщения
Вы не можете редактировать свои сообщения
Вы не можете удалять свои сообщения
Вы не можете голосовать в опросах
Вы не можете прикреплять файлы к сообщениям
Вы не можете скачивать файлы