Моя фамилия Шилов (Андрей Элинсон) [2013, Остросюжетный боевик, DVB]

Ответить на тему
 
Автор Сообщение

user ®

Стаж: 7 лет 7 месяцев

Сообщений: 20008

Пост Пост: #1 от 11-Окт-2013 21:05

[Цитировать]

Моя фамилия Шилов
Жанр: Остросюжетный боевик
Год выпуска: 2013
Продолжительность: 01:31:00
Режиссёр: Андрей Элинсон
В ролях: Александр Устюгов, Сергей Перегудов, Мария Синяева, Геннадий Алимпиев, Алексей Федотов, Светлана Смирнова
Описание: Герои "Ментовских войн" Арнаутов в "Отдельном поручении" и Джексон в фильме "Просто Джексон" уже показали, на что они способны в самых сложных и рискованных ситуациях. На этот раз доказать свой высокий профессионализм и отвагу придется самому главному борцу с беззаконием - полковнику полиции Роману Шилову. После увольнения из ГУВД Шилов (Александр Устюгов) оказался не у дел. Он решает использовать внезапно появившееся свободное время для того, чтобы наконец уладить все вопросы с личной жизнью. Но встрече с Ксенией Максаковой (Светлана Смирнова), с которой он давно мечтал объясниться, мешает известие об исчезновении давнего знакомого Михаила Краснова (Сергей Перегудов), показания которого когда-то помогли посадить за решетку опасного убийцу...
Сэмпл
Качество видео: DVB
Формат видео: TS
Видео: AVC, 720х576, 4:3, 1973 Kbps, 25 fps, Bits/(Pixel*Frame): 0, 190
Аудио: 192 Kbps, 48.0 KHz, 2 ch

MediaInfo

G:\БОЕВИКИ\Моя фамилия Шилов.ts
General #1
ID : 1 (0x1)
Complete name : G:\БОЕВИКИ\Моя фамилия Шилов.ts
Format : MPEG-TS
File size : 1.45 GiB
Duration : 1h 31mn
Overall bit rate : 2 280 Kbps
Video #43
ID : 43 (0x2B)
Menu ID : 1 (0x1)
Format : AVC
Format/Info : Advanced Video Codec
Format profile : High@L3.0
Format settings, CABAC : Yes
Format settings, ReFrames : 3 frames
Codec ID : 27
Duration : 1h 31mn
Bit rate : 1 974 Kbps
Width : 720 pixels
Height : 576 pixels
Display aspect ratio : 4:3
Frame rate : 25.000 fps
Standard : Component
Color space : YUV
Chroma subsampling : 4:2:0
Bit depth : 8 bits
Scan type : Interlaced
Scan order : Top Field First
Bits/(Pixel*Frame) : 0.190
Stream size : 1.26 GiB (87%)
Color primaries : BT.470-6 System B, BT.470-6 System G, BT.601-6 625, BT.1358 625, BT.1700 625 PAL, BT.1700 625 SECAM
Transfer characteristics : BT.470-6 System B, BT.470-6 System G
Matrix coefficients : BT.470-6 System B, BT.470-6 System G, BT.601-6 625, BT.1358 625, BT.1700 625 PAL, BT.1700 625 SECAM, IEC 61966-2-4 601
Audio #42
ID : 42 (0x2A)
Menu ID : 1 (0x1)
Format : MPEG Audio
Format version : Version 1
Format profile : Layer 2
Codec ID : 3
Duration : 1h 31mn
Bit rate mode : Constant
Bit rate : 192 Kbps
Channel(s) : 2 channels
Sampling rate : 48.0 KHz
Compression mode : Lossy
Stream size : 125 MiB (8%)
Language : English

Скриншоты

Скачать

Скачать торрент!

Как скачивать? · Что такое торрент? · Рейтинг и ограничения

Сайт не распространяет и не хранит электронные версии произведений, а лишь предоставляет доступ к создаваемому пользователями каталогу ссылок на торрент-файлы, которые содержат только списки хеш-сумм

[Профиль] [ЛС]
Показать сообщения:    
Ответить на тему

Текущее время: Сегодня 00:27

Часовой пояс: GMT + 4



Вы не можете начинать темы
Вы не можете отвечать на сообщения
Вы не можете редактировать свои сообщения
Вы не можете удалять свои сообщения
Вы не можете голосовать в опросах
Вы не можете прикреплять файлы к сообщениям
Вы не можете скачивать файлы