Дьявол в деталях / The Devil\'s in the Details (Уэймон Бун / Waymon Boone) [2013, США, триллер, HDRip] DVO

Ответить на тему
 
Автор Сообщение

user ®

Стаж: 7 лет 7 месяцев

Сообщений: 20008

Пост Пост: #1 от 11-Окт-2013 17:55

[Цитировать]

Дьявол в деталях / The Devil's in the Details
-Страна: США / Hollywood Media Bridge
Жанр: триллер
Год выпуска: 2013
Продолжительность: 01:40:17
Перевод: Любительский (двухголосный закадровый)
Режиссер: Уэймон Бун / Waymon Boone
Cубтитры: нет-В ролях: Рэй Лиотта, Эмилио Ривера, Джоэль Томпсон, Рэймонд Дж. Бэрри, Ноэль Гульеми, Лэйн Гаррисон, Jake Jacobson, Тина Ивлев, Артуро дель Пуэрто, Альберт Такур
Описание: Семь минут в Ногалисе, штат Аризона. Жизнь бывшего военнослужащего Томаса Конрада кардинально меняется, когда его похищают члены наркокартеля, чтобы с его помощью переправить наркотики через границу.-Сэмпл

Качество видео: HDRip [Рип с BDRip 720p]
Формат видео: AVI
Видео: Xvid 720x304 23.976fps, 1735 kb/s
Аудио: Dolby AC3 48000Hz stereo 192kbps (2 ch)

MediaInfo

General
Format : AVI
Format/Info : Audio Video Interleave
File size : 1.36 GiB
Duration : 1h 40mn
Overall bit rate : 1 937 Kbps
Writing application : VirtualDubMod 1.5.10.2 (build 2540/release)
Writing library : VirtualDubMod build 2540/release
Video
ID : 0
Format : MPEG-4 Visual
Format profile : Advanced Simple@L5
Format settings, BVOP : Yes
Format settings, QPel : No
Format settings, GMC : No warppoints
Format settings, Matrix : Default (MPEG)
Codec ID : XVID
Codec ID/Hint : XviD
Duration : 1h 40mn
Bit rate : 1 735 Kbps
Width : 720 pixels
Height : 304 pixels
Display aspect ratio : 2.35:1
Frame rate : 23.976 fps
Color space : YUV
Chroma subsampling : 4:2:0
Bit depth : 8 bits
Scan type : Progressive
Compression mode : Lossy
Bits/(Pixel*Frame) : 0.331
Stream size : 1.22 GiB (90%)
Writing library : XviD 1.2.1 (UTC 2008-12-04)
Audio
ID : 1
Format : AC-3
Format/Info : Audio Coding 3
Mode extension : CM (complete main)
Format settings, Endianness : Big
Codec ID : 2000
Duration : 1h 40mn
Bit rate mode : Constant
Bit rate : 192 Kbps
Channel count : 2 channels
Channel positions : Front: L R
Sampling rate : 48.0 KHz
Bit depth : 16 bits
Compression mode : Lossy
Stream size : 138 MiB (10%)
Alignment : Split accross interleaves
Interleave, duration : 42 ms (1.00 video frame)
Interleave, preload duration : 500 ms

Скриншот c названием фильма

Скриншоты

Скачать

Скачать торрент!

Как скачивать? · Что такое торрент? · Рейтинг и ограничения

Сайт не распространяет и не хранит электронные версии произведений, а лишь предоставляет доступ к создаваемому пользователями каталогу ссылок на торрент-файлы, которые содержат только списки хеш-сумм

[Профиль] [ЛС]
Показать сообщения:    
Ответить на тему

Текущее время: Сегодня 14:13

Часовой пояс: GMT + 4



Вы не можете начинать темы
Вы не можете отвечать на сообщения
Вы не можете редактировать свои сообщения
Вы не можете удалять свои сообщения
Вы не можете голосовать в опросах
Вы не можете прикреплять файлы к сообщениям
Вы не можете скачивать файлы