Штурм Белого дома / White House Down (Роланд Эммерих / Roland Emmerich) [2013, США, боевик, триллер, BDRip-AVC] Dub + Sub (Rus, Eng) + Original (Eng)

Ответить на тему
 
Автор Сообщение

user ®

Стаж: 7 лет 7 месяцев

Сообщений: 20008

Пост Пост: #1 от 11-Окт-2013 17:55

[Цитировать]

Штурм Белого дома / White House Down
Страна: США / Centropolis Entertainment, Iron Horse Entertainment (II), Mythology Entertainment (II)
Жанр: Боевик, триллер
Год выпуска: 2013
Продолжительность: 02:11:32
Перевод: Профессиональный (дублированный) [Лицензия]
Cубтитры: Русские, английские
Оригинальная аудиодорожка: английский
Режиссер: Роланд Эммерих / Roland Emmerich
В ролях: Ченнинг Татум, Джейми Фокс, Мэгги Джилленхол, Джейсон Кларк, Ричард Дженкинс, Джеймс Вудс, Джои Кинг, Николас Райт, Джимми Симпсон, Майкл Мерфи, Сергей Бурунов, Леонид Белозорович, Лиза Мартиросова, Михаил Тихонов, Александр Груздев
Описание: Cотрудник госбезопасности приходит вместе с дочерью в Белый дом на собеседование на должность в структуру охраны президента. И именно в этот день Белый дом атакуют некие неопознанные вооружённые силы. Офицер проявляет чудеса находчивости и отваги, пытаясь спасти жизнь своему ребёнку, себе и президенту США.
Сэмпл: http://multi-up.com/911989
Качество видео: BDRip-AVC [White_House_Down_BlueBird]
Формат видео: MKV
Видео: х.264, 1092x456 (16:9), 23,976 fps, 2264 Кbps, 0.190 bit/pixel
Аудио 1: 48 kHz, AC3 Dolby Digital, 3/2 (L,C,R,l,r) + LFE ch, 448.00 kbps | RUS
Аудио 2: 48 kHz, AC3 Dolby Digital, 3/2 (L,C,R,l,r) + LFE ch, 448.00 kbps | ENG
Автор рипа: potroks

MediaInfo

General
Unique ID : 211567141510670021883021271040068146203 (0x9F2A596C46291E19BA849768624FD41B)
Complete name : /etc/seedbox/home/kino1/data/Shturm.Belogo.Doma.2013.DUAL.BDRip.x264.mkv
Format : Matroska
Format version : Version 2
File size : 2.91 GiB
Duration : 2h 11mn
Overall bit rate : 3 162 Kbps
Movie name : HELLYWOOD - rip by potroks
Encoded date : UTC 2013-10-11 05:26:00
Writing application : mkvmerge v5.9.0 ('On The Loose') built on Dec 15 2012 16:39:58
Writing library : libebml v1.3.0 + libmatroska v1.4.0
Video
ID : 1
Format : AVC
Format/Info : Advanced Video Codec
Format profile : High@L4.1
Format settings, CABAC : Yes
Format settings, ReFrames : 9 frames
Codec ID : V_MPEG4/ISO/AVC
Duration : 2h 11mn
Bit rate : 2 264 Kbps
Width : 1 092 pixels
Height : 456 pixels
Display aspect ratio : 2.40:1
Frame rate mode : Constant
Frame rate : 23.976 fps
Color space : YUV
Chroma subsampling : 4:2:0
Bit depth : 8 bits
Scan type : Progressive
Bits/(Pixel*Frame) : 0.190
Stream size : 2.02 GiB (70%)
Title : White House Down
Writing library : x264 core 130 r2273 b3065e6
Encoding settings : cabac=1 / ref=9 / deblock=1:-2:-1 / analyse=0x3:0x133 / me=umh / subme=11 / psy=1 / psy_rd=1.05:0.01 / mixed_ref=1 / me_range=32 / chroma_me=1 / trellis=2 / 8x8dct=1 / cqm=0 / deadzone=21,11 / fast_pskip=0 / chroma_qp_offset=-3 / threads=12 / lookahead_threads=3 / sliced_threads=0 / nr=0 / decimate=0 / interlaced=0 / bluray_compat=0 / constrained_intra=0 / bframes=10 / b_pyramid=2 / b_adapt=2 / b_bias=0 / direct=3 / weightb=1 / open_gop=0 / weightp=2 / keyint=250 / keyint_min=23 / scenecut=40 / intra_refresh=0 / rc_lookahead=60 / rc=2pass / mbtree=0 / bitrate=2264 / ratetol=1.0 / qcomp=0.70 / qpmin=0 / qpmax=69 / qpstep=4 / cplxblur=20.0 / qblur=0.5 / vbv_maxrate=20000 / vbv_bufsize=25000 / nal_hrd=none / ip_ratio=1.30 / pb_ratio=1.35 / aq=1:0.70
Language : English
Default : Yes
Forced : No
Audio #1
ID : 2
Format : AC-3
Format/Info : Audio Coding 3
Mode extension : CM (complete main)
Format settings, Endianness : Big
Codec ID : A_AC3
Duration : 2h 11mn
Bit rate mode : Constant
Bit rate : 448 Kbps
Channel count : 6 channels
Channel positions : Front: L C R, Side: L R, LFE
Sampling rate : 48.0 KHz
Bit depth : 16 bits
Compression mode : Lossy
Stream size : 422 MiB (14%)
Title : Dub | DD 5.1 @ 448 kbps - BD CEE
Language : Russian
Default : Yes
Forced : Yes
Audio #2
ID : 3
Format : AC-3
Format/Info : Audio Coding 3
Mode extension : CM (complete main)
Format settings, Endianness : Big
Codec ID : A_AC3
Duration : 2h 11mn
Bit rate mode : Constant
Bit rate : 448 Kbps
Channel count : 6 channels
Channel positions : Front: L C R, Side: L R, LFE
Sampling rate : 48.0 KHz
Bit depth : 16 bits
Compression mode : Lossy
Stream size : 422 MiB (14%)
Title : Original | DD 5.1 @ 448 kbps - BD CEE
Language : English
Default : No
Forced : No
Text #1
ID : 4
Format : UTF-8
Codec ID : S_TEXT/UTF8
Codec ID/Info : UTF-8 Plain Text
Language : Russian
Default : No
Forced : No
Text #2
ID : 5
Format : UTF-8
Codec ID : S_TEXT/UTF8
Codec ID/Info : UTF-8 Plain Text
Language : English
Default : No
Forced : No
Menu
00:00:00.000 : en:(01)00:00:00:000
00:06:39.774 : en:(02)00:06:39:774
00:15:18.834 : en:(03)00:15:18:834
00:21:37.838 : en:(04)00:21:37:838
00:30:10.809 : en:(05)00:30:10:809
00:37:47.348 : en:(06)00:37:47:348
00:45:51.206 : en:(07)00:45:51:206
00:51:12.277 : en:(08)00:51:12:277
00:59:55.133 : en:(09)00:59:55:133
01:07:08.941 : en:(10)01:07:08:941
01:14:42.853 : en:(11)01:14:42:853
01:24:13.590 : en:(12)01:24:13:590
01:29:53.805 : en:(13)01:29:53:805
01:37:27.716 : en:(14)01:37:27:716
01:44:36.561 : en:(15)01:44:36:561
01:54:17.851 : en:(16)01:54:17:851

Скриншоты

Скачать

Скачать торрент!

Как скачивать? · Что такое торрент? · Рейтинг и ограничения

Сайт не распространяет и не хранит электронные версии произведений, а лишь предоставляет доступ к создаваемому пользователями каталогу ссылок на торрент-файлы, которые содержат только списки хеш-сумм

[Профиль] [ЛС]
Показать сообщения:    
Ответить на тему

Текущее время: Сегодня 18:31

Часовой пояс: GMT + 4



Вы не можете начинать темы
Вы не можете отвечать на сообщения
Вы не можете редактировать свои сообщения
Вы не можете удалять свои сообщения
Вы не можете голосовать в опросах
Вы не можете прикреплять файлы к сообщениям
Вы не можете скачивать файлы