Дьявол в деталях / The Devil\'s in the Details (Уэймон Бун / Waymon Boone) [2013, США, триллер, HDRip] VO

Ответить на тему
 
Автор Сообщение

user ®

Стаж: 7 лет 7 месяцев

Сообщений: 20008

Пост Пост: #1 от 11-Окт-2013 10:15

[Цитировать]

Дьявол в деталях / The Devil's in the Details
Страна: США / Hollywood Media Bridge
Жанр: триллер
Год выпуска: 2013
Продолжительность: 01:40:23
Перевод: Одноголосый закадровый (озвучивание den904, перевод Janetta)
Cубтитры: нет
Режиссер: Уэймон Бун / Waymon Boone
В главных ролях: Эмилио Ривера / Emilio Rivera, Джоэль Матеус / Joel Mathews и/and Рэй Лиотта / Ray Liotta.
В ролях: Рэймонд Дж. Бэрри, Ноэль Гульеми, Лэйн Гаррисон, Джейк Якобсон, Тина Ивлев, Артуро дель Пуэрто, Альберт Такур.
Описание: Обычное утро обычного дня в Ногалесе, штат Аризона. Жизнь бывшего военнослужащего Томаса Конрада кардинально меняется, когда его похищают члены наркокартеля, чтобы с его помощью переправить наркотики через границу.
Доп. информация: Премьера (мир) 12 марта 2013
Сэмпл: http://multi-up.com/872378
Качество видео: HDRip
Формат видео: AVI
Видео кодек: XviD
Аудио кодек: AC3
Видео: XviD, 720х304 (2,35:1), 1621 kbps, 23,976 fps
Аудио: AC3, 6 ch (Front: L C R, Side: L R, LFE), 448 Кбит/с, 48000 kHz

MediaInfo

Общее
Полное имя : S:\Раздачи на rutracker\Дьявол в деталях\Dyavol.v.detalyah.2012.HDRip..avi
Формат : AVI
Формат/Информация : Audio Video Interleave
Размер файла : 1,46 Гбайт
Продолжительность : 1 ч. 40 м.
Общий поток : 2079 Кбит/сек
Программа кодирования : VirtualDubMod 1.5.10.2 (build 2540/release)
Библиотека кодирования : VirtualDubMod build 2540/release
Видео
Идентификатор : 0
Формат : MPEG-4 Visual
Профиль формата : Advanced Simple@L5
Параметр BVOP формата : 2
Параметр QPel формата : Нет
Параметр GMC формата : Без точки перехода
Параметр матрицы формата : Default (MPEG)
Идентификатор кодека : XVID
Идентификатор кодека/Подсказка : XviD
Продолжительность : 1 ч. 40 м.
Битрейт : 1621 Кбит/сек
Ширина : 720 пикселей
Высота : 304 пикселя
Соотношение сторон : 2,35:1
Частота кадров : 23,976 кадра/сек
Цветовое пространство : YUV
Субдискретизация насыщенности : 4:2:0
Битовая глубина : 8 бит
Тип развёртки : Прогрессивная
Метод сжатия : С потерями
Бит/(Пиксели*Кадры) : 0.309
Размер потока : 1,14 Гбайт (78%)
Библиотека кодирования : XviD 1.2.1 (UTC 2008-12-04)
Аудио
Идентификатор : 1
Формат : AC-3
Формат/Информация : Audio Coding 3
Расширение режима : CM (complete main)
Параметр Endianness формата : Big
Идентификатор кодека : 2000
Продолжительность : 1 ч. 40 м.
Вид битрейта : Постоянный
Битрейт : 448 Кбит/сек
Каналы : 6 каналов
Расположение каналов : Front: L C R, Side: L R, LFE
Частота : 48,0 КГц
Битовая глубина : 16 бит
Метод сжатия : С потерями
Размер потока : 321 Мбайт (22%)
Выравнивание : Разделение по промежуткам
Продолжительность промежутка : 42 мс. (1,00 видеокадр)
Время предзагрузки промежутка : 500 мс.

Скриншот c названием фильма

Скриншоты

Скачать

Скачать торрент!

Как скачивать? · Что такое торрент? · Рейтинг и ограничения

Сайт не распространяет и не хранит электронные версии произведений, а лишь предоставляет доступ к создаваемому пользователями каталогу ссылок на торрент-файлы, которые содержат только списки хеш-сумм

[Профиль] [ЛС]
Показать сообщения:    
Ответить на тему

Текущее время: Сегодня 10:47

Часовой пояс: GMT + 4



Вы не можете начинать темы
Вы не можете отвечать на сообщения
Вы не можете редактировать свои сообщения
Вы не можете удалять свои сообщения
Вы не можете голосовать в опросах
Вы не можете прикреплять файлы к сообщениям
Вы не можете скачивать файлы