Мой милый / Chellamay (Гандхи Кришна / Gandhi Krishna) [2004, Индия, Романтический триллер, DVDRip] Rus Sub

Ответить на тему
 
Автор Сообщение

user ®

Стаж: 12 лет

Сообщений: 15124

Пост Пост: #1 от 11-Окт-2013 03:55

[Цитировать]

Мой милый / Chellamay
-Страна: Индия
Жанр: Романтический триллер
Год выпуска: 2004
Продолжительность: 02:35:31--Язык: Тамили
Перевод: Субтитры
Cубтитры: Русские
Перевод субтитров: madhumakkhi--Режиссер: Гандхи Кришна / Gandhi Krishna-В ролях: Вишал, Рима Сен, Бхарат, Бхануприя, Вивек--Описание: Молодой налоговый инспектор Рагху (Вишал) во время одного из рейдов в дом известного бизнесмена (Гириш Карнад) встречает девушку Маитхили (Рима Сен), свою будущую жену. В соседнем доме Маитхили живет мальчик Вишва (Бхарат), сын того самого бизнесмена. Он остался без матери в младенчестве, и Маитхили заменила ему и мать, и сестру. Но мальчик вырос...
Молодожены едут из Ченнаи в Гоа, где Рагху получает работу, и наслаждаются семейным счастьем. Но внезапно в Гоа приезжает Вишва. И события стремительно развиваются.. (с) Sima Kivi-Доп. информация: Дебютный фильм Вишала Chellamay был одним из самых кассовых фильмов 2004г.--Качество видео: DVDRip
Формат видео: AVI-Видео: XviD, 704x288, 23.976 fps, 1158 Kbps
Аудио: MP3, 48 КHz, 2 сh, 128 Kbps
Формат субтитров: hardsub (неотключаемые)--Релиз: Bee Movie
Перевод субтитров: madhumakkhi (спасибо!),
при поддержке Wita-Helena и Sima Kivi (спасибо!)
Риппер: soso4eg-- -
-

Скриншот с названием:


-

Скриншоты:


-

MI

Общее
Полное имя : H:\[Релизы]\[DVDRip]\Moy.miliy.2004.DVDRip.Xvid.BeeMovie-soso4eg\Moy.miliy.CD1.2004.DVDRip.Xvid.BeeMovie-soso4eg.avi
Формат : AVI
Формат/Информация : Audio Video Interleave
Размер файла : 718 Мбайт
Продолжительность : 1 ч. 17 м.
Общий поток : 1295 Кбит/сек
Программа кодирования : VirtualDubMod 1.5.10.3 | www.virtualdub-fr.org || (build 2550/release)
Библиотека кодирования : VirtualDubMod build 2550/release
Видео
Идентификатор : 0
Формат : MPEG-4 Visual
Профиль формата : Advanced Simple@L5
Параметр BVOP формата : 2
Параметр QPel формата : Нет
Параметр GMC формата : Без точки перехода
Параметр матрицы формата : Default (H.263)
Идентификатор кодека : XVID
Идентификатор кодека/Подсказка : XviD
Продолжительность : 1 ч. 17 м.
Битрейт : 1158 Кбит/сек
Ширина : 704 пикселя
Высота : 288 пикселей
Соотношение сторон : 2,40:1
Частота кадров : 23,976 кадра/сек
Цветовое пространство : YUV
Субдискретизация насыщенности : 4:2:0
Битовая глубина : 8 бит
Тип развёртки : Прогрессивная
Метод сжатия : С потерями
Бит/(Пиксели*Кадры) : 0.238
Размер потока : 642 Мбайт (89%)
Библиотека кодирования : XviD 1.2.1 (UTC 2008-12-04)
Аудио
Идентификатор : 1
Формат : MPEG Audio
Версия формата : Version 1
Профиль формата : Layer 3
Режим : Joint stereo
Идентификатор кодека : 55
Идентификатор кодека/Подсказка : MP3
Продолжительность : 1 ч. 17 м.
Вид битрейта : Постоянный
Битрейт : 128 Кбит/сек
Каналы : 2 канала
Частота : 48,0 КГц
Метод сжатия : С потерями
Размер потока : 71,0 Мбайт (10%)
Выравнивание : Соединение по промежуткам
Продолжительность промежутка : 42 мс. (1,00 видеокадр)
Время предзагрузки промежутка : 504 мс.-Общее
Полное имя : H:\[Релизы]\[DVDRip]\Moy.miliy.2004.DVDRip.Xvid.BeeMovie-soso4eg\Moy.miliy.CD2.2004.DVDRip.Xvid.BeeMovie-soso4eg.avi
Формат : AVI
Формат/Информация : Audio Video Interleave
Размер файла : 723 Мбайт
Продолжительность : 1 ч. 17 м.
Общий поток : 1295 Кбит/сек
Программа кодирования : VirtualDubMod 1.5.10.3 | www.virtualdub-fr.org || (build 2550/release)
Библиотека кодирования : VirtualDubMod build 2550/release
Видео
Идентификатор : 0
Формат : MPEG-4 Visual
Профиль формата : Advanced Simple@L5
Параметр BVOP формата : 2
Параметр QPel формата : Нет
Параметр GMC формата : Без точки перехода
Параметр матрицы формата : Default (H.263)
Идентификатор кодека : XVID
Идентификатор кодека/Подсказка : XviD
Продолжительность : 1 ч. 17 м.
Битрейт : 1158 Кбит/сек
Ширина : 704 пикселя
Высота : 288 пикселей
Соотношение сторон : 2,40:1
Частота кадров : 23,976 кадра/сек
Цветовое пространство : YUV
Субдискретизация насыщенности : 4:2:0
Битовая глубина : 8 бит
Тип развёртки : Прогрессивная
Метод сжатия : С потерями
Бит/(Пиксели*Кадры) : 0.238
Размер потока : 646 Мбайт (89%)
Библиотека кодирования : XviD 1.2.1 (UTC 2008-12-04)
Аудио
Идентификатор : 1
Формат : MPEG Audio
Версия формата : Version 1
Профиль формата : Layer 3
Идентификатор кодека : 55
Идентификатор кодека/Подсказка : MP3
Продолжительность : 1 ч. 17 м.
Вид битрейта : Постоянный
Битрейт : 128 Кбит/сек
Каналы : 2 канала
Частота : 48,0 КГц
Метод сжатия : С потерями
Размер потока : 71,4 Мбайт (10%)
Выравнивание : Соединение по промежуткам
Продолжительность промежутка : 42 мс. (1,00 видеокадр)
Время предзагрузки промежутка : 504 мс.
Библиотека кодирования : LAME3.99r
Настройки программы : -m s -V 4 -q 2 -lowpass 17 -b 128

-
-
Скачать

Скачать торрент! Мой милый / Chellamay (Гандхи Кришна / Gandhi Krishna) [2004, Индия, Романтический триллер, DVDRip] Rus Sub

Как скачивать? · Что такое торрент? · Рейтинг и ограничения

Сайт не распространяет и не хранит электронные версии произведений, а лишь предоставляет доступ к создаваемому пользователями каталогу ссылок на торрент-файлы, которые содержат только списки хеш-сумм

[Профиль] [ЛС]
Показать сообщения:    
Ответить на тему

Текущее время: Сегодня 20:24

Часовой пояс: GMT + 4



Вы не можете начинать темы
Вы не можете отвечать на сообщения
Вы не можете редактировать свои сообщения
Вы не можете удалять свои сообщения
Вы не можете голосовать в опросах
Вы не можете прикреплять файлы к сообщениям
Вы не можете скачивать файлы