Гениальный папа / Father of Invention (Трент Купер / Trent Cooper) [2010, США, драма, комедия, BDRip 1080p] Dub + original eng

Ответить на тему
 
Автор Сообщение

user ®

Стаж: 7 лет 7 месяцев

Сообщений: 20008

Пост Пост: #1 от 10-Окт-2013 17:00

[Цитировать]

Гениальный папа / Father of Invention
Страна: США
Жанр: драма, комедия
Год выпуска: 2010
Продолжительность: 01:33:13
Перевод: Профессиональный (полное дублирование)
Оригинальная аудиодорожка: английский
Режиссер: Трент Купер / Trent Cooper
В ролях: Кевин Спейси, Камилла Белль, Джонни Ноксвил, Хэзер Грэм, Анна Анисимова, Джон Стамос, Ред Уэст, Майкл Розенбаум, Дэнни Комден, Джек МакГи
Описание: Роберт Аксель, эксцентричный изобретатель, считает себя настоящим гуру. Но он теряет все в один миг, когда одно из его изобретений калечит тысячи покупателей. Его ждали тюрьма и 8 лет затворничества, после Аксель готов восстановить свое имя и свою многомиллионную империю. Но пока что ему нужно уговорить свою 22-летнюю дочь пустить его к себе в дом, что бы где-то жить.
Сэмпл: http://multi-up.com/911726
Тип релиза: BDRip 1080p
Контейнер: MKV
Видео: 1920x800, 23.976fps, x264, 11.6 Mbps
Аудио: (RUS) AC-3 5.1, 48 kHz, 16 bits, 448 kbps
Аудио: (ENG) AC-3 5.1, 48 kHz, 16 bits, 640 kbps
Cубтитры: английские

MediaInfo

Общее
Уникальный идентификатор : 215273146511367702959940266646366291135 (0xA1F41993A0B2CF25B0EF8D106C2B84BF)
Полное имя : F:\Father.of.Invention.2010.D.Rus.Eng.BDRip.1080p.x264.mkv
Формат : Matroska
Версия формата : Version 2
Размер файла : 8,24 Гбайт
Продолжительность : 1 ч. 33 м.
Общий поток : 12,7 Мбит/сек
Дата кодирования : UTC 2013-10-10 10:12:15
Программа кодирования : mkvmerge v6.4.1 ('Omega Point') built on Sep 16 2013 22:05:10
Библиотека кодирования : libebml v1.3.0 + libmatroska v1.4.1
Видео
Идентификатор : 1
Формат : AVC
Формат/Информация : Advanced Video Codec
Профиль формата : High@L4.1
Параметр CABAC формата : Да
Параметр ReFrames формата : 4 кадра
Идентификатор кодека : V_MPEG4/ISO/AVC
Продолжительность : 1 ч. 33 м.
Битрейт : 11,6 Мбит/сек
Ширина : 1920 пикселей
Высота : 800 пикселей
Соотношение сторон : 2,40:1
Режим частоты кадров : Постоянный
Частота кадров : 23,976 кадра/сек
Цветовое пространство : YUV
Субдискретизация насыщенности : 4:2:0
Битовая глубина : 8 бит
Тип развёртки : Прогрессивная
Бит/(Пиксели*Кадры) : 0.314
Размер потока : 7,37 Гбайт (89%)
Библиотека кодирования : x264 core 98 r1649 c54c47d
Настройки программы : cabac=1 / ref=4 / deblock=1:-3:-3 / analyse=0x3:0x113 / me=umh / subme=9 / psy=1 / psy_rd=1.10:0.00 / mixed_ref=1 / me_range=32 / chroma_me=1 / trellis=2 / 8x8dct=1 / cqm=0 / deadzone=21,11 / fast_pskip=0 / chroma_qp_offset=-4 / threads=12 / sliced_threads=0 / nr=0 / decimate=0 / interlaced=0 / constrained_intra=0 / bframes=6 / b_pyramid=2 / b_adapt=2 / b_bias=0 / direct=3 / weightb=1 / weightp=2 / keyint=250 / keyint_min=25 / scenecut=40 / intra_refresh=0 / rc_lookahead=48 / rc=2pass / mbtree=1 / bitrate=11576 / ratetol=1.0 / qcomp=0.60 / qpmin=10 / qpmax=51 / qpstep=4 / cplxblur=20.0 / qblur=0.5 / ip_ratio=1.40 / aq=1:0.80
Язык : English
Default : Да
Forced : Нет
Аудио #1
Идентификатор : 2
Формат : AC-3
Формат/Информация : Audio Coding 3
Расширение режима : CM (complete main)
Параметр Endianness формата : Big
Идентификатор кодека : A_AC3
Продолжительность : 1 ч. 33 м.
Вид битрейта : Постоянный
Битрейт : 448 Кбит/сек
Каналы : 6 каналов
Расположение каналов : Front: L C R, Side: L R, LFE
Частота : 48,0 КГц
Битовая глубина : 16 бит
Метод сжатия : С потерями
Размер потока : 299 Мбайт (4%)
Язык : Russian
Default : Да
Forced : Нет
Аудио #2
Идентификатор : 3
Формат : AC-3
Формат/Информация : Audio Coding 3
Расширение режима : CM (complete main)
Параметр Endianness формата : Big
Идентификатор кодека : A_AC3
Продолжительность : 1 ч. 33 м.
Вид битрейта : Постоянный
Битрейт : 640 Кбит/сек
Каналы : 6 каналов
Расположение каналов : Front: L C R, Side: L R, LFE
Частота : 48,0 КГц
Битовая глубина : 16 бит
Метод сжатия : С потерями
Размер потока : 427 Мбайт (5%)
Язык : English
Default : Нет
Forced : Нет
Текст
Идентификатор : 4
Формат : UTF-8
Идентификатор кодека : S_TEXT/UTF8
Идентификатор кодека/Информация : UTF-8 Plain Text
Язык : English
Default : Нет
Forced : Нет
Меню
00:00:00.000 : :00:00:00.000
00:07:35.497 : :00:07:35.497
00:14:27.575 : :00:14:27.575
00:22:18.837 : :00:22:18.837
00:31:37.896 : :00:31:37.896
00:39:50.388 : :00:39:50.388
00:46:23.155 : :00:46:23.155
00:55:11.975 : :00:55:11.975
01:03:02.654 : :01:03:02.654
01:11:17.899 : :01:11:17.899
01:20:47.384 : :01:20:47.384
01:29:41.668 : :01:29:41.668

Скриншот с названием

Скриншоты

Скачать

Скачать торрент!

Как скачивать? · Что такое торрент? · Рейтинг и ограничения

Сайт не распространяет и не хранит электронные версии произведений, а лишь предоставляет доступ к создаваемому пользователями каталогу ссылок на торрент-файлы, которые содержат только списки хеш-сумм

[Профиль] [ЛС]
Показать сообщения:    
Ответить на тему

Текущее время: Сегодня 23:20

Часовой пояс: GMT + 4



Вы не можете начинать темы
Вы не можете отвечать на сообщения
Вы не можете редактировать свои сообщения
Вы не можете удалять свои сообщения
Вы не можете голосовать в опросах
Вы не можете прикреплять файлы к сообщениям
Вы не можете скачивать файлы