Тридцатого уничтожить (Виктор Доценко) [1992, Боевик, DVDRip-AVC]

Ответить на тему
 
Автор Сообщение

user ®

Стаж: 7 лет 7 месяцев

Сообщений: 20008

Пост Пост: #1 от 10-Окт-2013 13:50

[Цитировать]

Тридцатого уничтожить
Жанр: Боевик
Год выпуска: 1992
Продолжительность: 02:01:52
Режиссёр: Виктор Доценко
В ролях: Игорь Ливанов, Аристарх Ливанов, Марина Зудина, Станислав Садальский, Леонид Куравлев, Александр Пороховщиков, Владимир Ивашов, Николай Бармин, Владимир Епископосян, Виктор Доценко, Елена Костина, Абу Ганем, Иван Шабалтас
Описание: "Рэкс" был тяжело ранен в Афганистане, попал в плен, бежал чудом, жил в тибетском монастыре... Несколько лет шатался он по свету и, наконец, вернулся домой. Но мирной работы для него в Москве не нашлось. Он завербовался инструктором в среднеазиатский военный лагерь тайной организации, рвущейся к власти. Завербованные практически становятся пленниками и получают номера вместо имён. Так он стал "тридцатым". Узнав тайну, ставящую под угрозу существование организации, Рэкс и его брат, бывший капитан спецназа, бегут, похитив ценную информацию...
Доп. информация: Премьера - сентябрь 1993 года.

Раздача ведется с 9 до 22 Киев
Качество видео: DVDRip-AVC
Формат видео: MKV
Видео: AVC (H.264), 696x574@742x574 (1,293), 25 fps, 2120 kbps
Аудио: 48 kHz, AC-3, 6 ch, 448 kbps

MediaInfo

Общее
Уникальный идентификатор : 174939725634814311085143192421082181490 (0x839C2A652CA04CD0BF4D832957B5AF72)
Полное имя : D:\Фильмы\Тридцатого уничтожить (1).mkv
Формат : Matroska
Версия формата : Version 4 / Version 2
Размер файла : 2,19 Гбайт
Продолжительность : 2 ч. 1 м.
Общий поток : 2570 Кбит/сек
Дата кодирования : UTC 2013-06-26 05:35:16
Программа кодирования : mkvmerge v6.2.0 ('Promised Land') built on Apr 28 2013 12:22:01
Библиотека кодирования : libebml v1.3.0 + libmatroska v1.4.0
Видео
Идентификатор : 1
Формат : AVC
Формат/Информация : Advanced Video Codec
Профиль формата : High@L4.1
Параметр CABAC формата : Да
Параметр ReFrames формата : 6 кадров
Идентификатор кодека : V_MPEG4/ISO/AVC
Продолжительность : 2 ч. 1 м.
Битрейт : 2120 Кбит/сек
Ширина : 696 пикселей
Высота : 574 пикселя
Соотношение сторон : 1,293
Частота кадров : 25,000 кадров/сек
Цветовое пространство : YUV
Субдискретизация насыщенности : 4:2:0
Битовая глубина : 8 бит
Тип развёртки : Прогрессивная
Бит/(Пиксели*Кадры) : 0.212
Размер потока : 1,76 Гбайт (81%)
Библиотека кодирования : x264 core 133 r2334 a3ac64b
Настройки программы : cabac=1 / ref=6 / deblock=1:-2:-2 / analyse=0x3:0x133 / me=umh / subme=9 / psy=1 / psy_rd=1.00:0.00 / mixed_ref=1 / me_range=32 / chroma_me=1 / trellis=2 / 8x8dct=1 / cqm=0 / deadzone=21,11 / fast_pskip=1 / chroma_qp_offset=-2 / threads=3 / lookahead_threads=1 / sliced_threads=0 / nr=0 / decimate=1 / interlaced=0 / bluray_compat=0 / constrained_intra=0 / bframes=9 / b_pyramid=2 / b_adapt=2 / b_bias=0 / direct=3 / weightb=1 / open_gop=0 / weightp=2 / keyint=250 / keyint_min=25 / scenecut=40 / intra_refresh=0 / rc_lookahead=60 / rc=2pass / mbtree=1 / bitrate=2120 / ratetol=1.0 / qcomp=0.60 / qpmin=0 / qpmax=69 / qpstep=4 / cplxblur=20.0 / qblur=0.5 / ip_ratio=1.40 / aq=1:1.00
Язык : English
Default : Да
Forced : Нет
Аудио
Идентификатор : 2
Формат : AC-3
Формат/Информация : Audio Coding 3
Расширение режима : CM (complete main)
Параметр Endianness формата : Big
Идентификатор кодека : A_AC3
Продолжительность : 2 ч. 1 м.
Вид битрейта : Постоянный
Битрейт : 448 Кбит/сек
Каналы : 6 каналов
Расположение каналов : Front: L C R, Side: L R, LFE
Частота : 48,0 КГц
Битовая глубина : 16 бит
Метод сжатия : С потерями
Размер потока : 391 Мбайт (17%)
Default : Да
Forced : Нет

Скриншоты

Скачать

Скачать торрент!

Как скачивать? · Что такое торрент? · Рейтинг и ограничения

Сайт не распространяет и не хранит электронные версии произведений, а лишь предоставляет доступ к создаваемому пользователями каталогу ссылок на торрент-файлы, которые содержат только списки хеш-сумм

[Профиль] [ЛС]
Показать сообщения:    
Ответить на тему

Текущее время: Сегодня 10:05

Часовой пояс: GMT + 4



Вы не можете начинать темы
Вы не можете отвечать на сообщения
Вы не можете редактировать свои сообщения
Вы не можете удалять свои сообщения
Вы не можете голосовать в опросах
Вы не можете прикреплять файлы к сообщениям
Вы не можете скачивать файлы