Эта сумасшедшая молодёжь / Yeh Jawaani Hai Deewani (Аян Мукхерджи / Ayan Mukherjee ) [2013, Индия, Драма, мелодрама, DVDRip] DVO (Selena&datynet) + Sub Rus

Ответить на тему
 
Автор Сообщение

user ®

Стаж: 12 лет

Сообщений: 15125

Пост Пост: #1 от 10-Окт-2013 09:25

[Цитировать]

Эта сумасшедшая молодёжь / Yeh Jawaani Hai Deewani
Страна: Индия
Жанр: Драма, мелодрама
Год выпуска: 2013
Продолжительность: 02:40:48
Перевод: Любительский (двухголосый закадровый) Selena&datynet
Перевод на русский язык: Jyoti
Cубтитры: русские
Режиссер: Аян Мукхерджи / Ayan Mukherjee
В ролях: Ранбир Капур, Дипика Падукон, Калки Коечлин, Адитья Рой Капур, Кунал Рой Капур, Пурна Джаганнатан, Эвелин Шарма, Навин Каушик
Описание: Нейна (Дипика Падукон) всегда была первой в учебе и последней – в вопросах флирта. Жизнь ее заложила крутой вираж после случайной встречи с бывшей одноклассницей Адити (Калки Коечлин). Едва ли Нейна знала, куда заведет ее импульсивное решение отправиться вместе со своей хипповатой подружкой покорять горы Манали. Но именно там она впервые в жизни влюбилась – в вольного, как ветер, Банни (Ранбир Капур).
Качество видео: DVDRip
Формат видео: AVI
Видео: Xvid 720x304 23.976fps
Аудио: MP3 44100Hz stereo 192kbps
Формат субтитров: hardsub (неотключаемые)
Доп. информация о субтитрах: только на песни

MediaInfo

General
Complete name : D:\Eta.Sumashedshaya.Molodezh.2013.DVDRip.XviD.BwTorrents.avi
Format : AVI
Format/Info : Audio Video Interleave
File size : 1.43 GiB
Duration : 2h 40mn
Overall bit rate : 1 271 Kbps
Director : TmG
Writing application : VirtualDubMod 1.5.10.3 | www.virtualdub-fr.org || (build 2550/release)
Writing library : VirtualDub build 34753/release
Video
ID : 0
Format : MPEG-4 Visual
Format profile : Advanced Simple@L5
Format settings, BVOP : Yes
Format settings, QPel : No
Format settings, GMC : No warppoints
Format settings, Matrix : Default (H.263)
Codec ID : XVID
Codec ID/Hint : XviD
Duration : 2h 40mn
Bit rate : 1 070 Kbps
Width : 720 pixels
Height : 304 pixels
Display aspect ratio : 2.35:1
Frame rate : 23.976 fps
Color space : YUV
Chroma subsampling : 4:2:0
Bit depth : 8 bits
Scan type : Progressive
Compression mode : Lossy
Bits/(Pixel*Frame) : 0.204
Stream size : 1.20 GiB (84%)
Writing library : XviD 64
Audio
ID : 1
Format : MPEG Audio
Format version : Version 1
Format profile : Layer 3
Codec ID : 55
Codec ID/Hint : MP3
Duration : 2h 40mn
Bit rate mode : Constant
Bit rate : 192 Kbps
Channel(s) : 2 channels
Sampling rate : 44.1 KHz
Compression mode : Lossy
Stream size : 221 MiB (15%)
Alignment : Split accross interleaves
Interleave, duration : 42 ms (1.00 video frame)
Interleave, preload duration : 500 ms

Скриншот c названием фильма

Скриншоты

Скачать

Скачать торрент! Эта сумасшедшая молодёжь / Yeh Jawaani Hai Deewani (Аян Мукхерджи / Ayan Mukherjee ) [2013, Индия, Драма, мелодрама, DVDRip] DVO (Selena&datynet) + Sub Rus

Как скачивать? · Что такое торрент? · Рейтинг и ограничения

Сайт не распространяет и не хранит электронные версии произведений, а лишь предоставляет доступ к создаваемому пользователями каталогу ссылок на торрент-файлы, которые содержат только списки хеш-сумм

[Профиль] [ЛС]
Показать сообщения:    
Ответить на тему

Текущее время: Сегодня 12:00

Часовой пояс: GMT + 4



Вы не можете начинать темы
Вы не можете отвечать на сообщения
Вы не можете редактировать свои сообщения
Вы не можете удалять свои сообщения
Вы не можете голосовать в опросах
Вы не можете прикреплять файлы к сообщениям
Вы не можете скачивать файлы