Ничего не бойся / Nothing Left to Fear (Энтони Леонарди III / Anthony Leonardi III) [2013, США, ужасы, HDRip] DVO (DeadSno & den904) + Original Eng

Ответить на тему
 
Автор Сообщение

user ®

Стаж: 7 лет 7 месяцев

Сообщений: 20008

Пост Пост: #1 от 10-Окт-2013 09:25

[Цитировать]

Ничего не бойсяNothing Left to Fear«Когда врата отворятся»- Страна: США
Жанр: ужасы
Год выпуска: 2013
Продолжительность: 01:40:25
Перевод: Любительский (двухголосый закадровый) [DeadSno] & [den904]
Cубтитры: нет
Оригинальная аудиодорожка: английский
Режиссер: Энтони Леонарди III / Anthony Leonardi III
В ролях: Клэнси Браун, Энн Хеч, Дженнифер Стоун, Итан Пек, Ребека Брандес, Джеймс Таппер, Хезер Руп, Мишель ДеВито, Дж.Д. Эвермор, Уэйн Пер
Описание: В поисках новой работы и лучшей жизни добропорядочная семья переезжает в маленький безмятежный городок Сталл в штате Канзас. Кто бы знал, что согласно древней легенде именно в Сталле находится одно из семи врат ада, через которые время от времени на землю выбирается сам дьявол...-
MPAA: R - Лицам до 17 лет обязательно присутствие взрослого-Сэмпл
Автор рипа: Odessit
Качество видео: HDRip /исходник: Nothing Left To Fear 2013 720p BluRay x264 IGUANA [PublicHD]
Формат видео: AVI
Видео: XviD, 720x304 (2.35:1), 1671 kbps, 23,976 fps, 0,318 bpp
Аудио: 48 kHz, AC3 Dolby Digital, 2/0 (L,R) ch, ~192 kbps (RUS)
Аудио 2: 48 kHz, AC3 Dolby Digital, 2/0 (L,R) ch, ~192 kbps (ENG)

MediaInfo

Format : AVI
Format/Info : Audio Video Interleave
File size : 1.45 GiB
Duration : 1h 40mn
Overall bit rate : 2 069 Kbps
Movie name : Nothing Left to Fear_2013.XviD.HDRip
Director : Odessit
Writing application : VirtualDubMod 1.5.10.3 (build 2550/release)
Video
ID : 0
Format : MPEG-4 Visual
Format profile : Advanced Simple@L5
Format settings, BVOP : 1
Format settings, QPel : No
Format settings, GMC : No warppoints
Format settings, Matrix : Custom
Codec ID : XVID
Codec ID/Hint : XviD
Duration : 1h 40mn
Bit rate : 1 671 Kbps
Width : 720 pixels
Height : 304 pixels
Display aspect ratio : 2.35:1
Frame rate : 23.976 fps
Color space : YUV
Chroma subsampling : 4:2:0
Bit depth : 8 bits
Scan type : Progressive
Compression mode : Lossy
Bits/(Pixel*Frame) : 0.318
Stream size : 1.17 GiB (81%)
Writing library : XviD 73
Audio #1
ID : 1
Format : AC-3
Format/Info : Audio Coding 3
Mode extension : CM (complete main)
Codec ID : 2000
Duration : 1h 40mn
Bit rate mode : Constant
Bit rate : 192 Kbps
Channel(s) : 2 channels
Channel positions : Front: L R
Sampling rate : 48.0 KHz
Bit depth : 16 bits
Compression mode : Lossy
Stream size : 138 MiB (9%)
Alignment : Split accross interleaves
Interleave, duration : 42 ms (1.00 video frame)
Interleave, preload duration : 500 ms
Audio #2
ID : 2
Format : AC-3
Format/Info : Audio Coding 3
Mode extension : CM (complete main)
Codec ID : 2000
Duration : 1h 40mn
Bit rate mode : Constant
Bit rate : 192 Kbps
Channel(s) : 2 channels
Channel positions : Front: L R
Sampling rate : 48.0 KHz
Bit depth : 16 bits
Compression mode : Lossy
Stream size : 138 MiB (9%)
Alignment : Split accross interleaves
Interleave, duration : 42 ms (1.00 video frame)
Interleave, preload duration : 500 ms

Скриншоты

Скачать

Скачать торрент!

Как скачивать? · Что такое торрент? · Рейтинг и ограничения

Сайт не распространяет и не хранит электронные версии произведений, а лишь предоставляет доступ к создаваемому пользователями каталогу ссылок на торрент-файлы, которые содержат только списки хеш-сумм

[Профиль] [ЛС]
Показать сообщения:    
Ответить на тему

Текущее время: Сегодня 02:15

Часовой пояс: GMT + 4



Вы не можете начинать темы
Вы не можете отвечать на сообщения
Вы не можете редактировать свои сообщения
Вы не можете удалять свои сообщения
Вы не можете голосовать в опросах
Вы не можете прикреплять файлы к сообщениям
Вы не можете скачивать файлы