Безопасность не гарантируется / Safety Not Guaranteed (Колин Треворроу / Colin Trevorrow) [2012, США, фантастика, драма, мелодрама, комедия, BDRip 720p] MVO + VO (advokat) + MVO Ukr (Интересная идея) + 4xSub (Rus, Eng, Ukr) + Original Eng

Ответить на тему
 
Автор Сообщение

user ®

Стаж: 7 лет 7 месяцев

Сообщений: 20008

Пост Пост: #1 от 10-Окт-2013 03:05

[Цитировать]

Безопасность не гарантируется / Safety Not Guaranteed- Страна: США
Студия: Big Beach Films, Duplass Brothers Productions
Жанр: фантастика, драма, мелодрама, комедия
Год выпуска: 2012
Продолжительность: 01:25:47
Перевод 1: Профессиональный (многоголосый закадровый)
Перевод 2: Одноголосый закадровый [advokat]
Перевод 3: Украинский, , профессиональный (многоголосый закадровый) [студия Интересная идея]
Cубтитры: русские (full) (Антон Копанев a.k.a. ak79 @ voronine), английские (full, SDH), украинские (full) (antusyrzhuk)
Оригинальная аудиодорожка: английская
Режиссер: Колин Треворроу / Colin Trevorrow
В ролях: Обри Плаза (Darius), Лорен Карлос (Young Darius), Бейзил Харрис (Restaurant Manager), Мэри Линн Райскаб (Bridget), Джейк Джонсон (Jeff), Каран Сони (Arnau), Дэвид Шульц (Coworker), Джефф Гарлин (Mr. Britt), Марк Дюпласс (Kenneth), Уильям Холл мл. (Shannon), Элис Хунг (Shift Manager), Хассан Кристос Мессия (Boyfriend in Car), Кели Шурман-Дарби (Girlfriend in Car), Дженика Бергер (Liz), Линн Шелтон (Uptight Mom), Питер Энтони Джейкобс (Deputy Sheriff), Эли Борозан (Kid in Diner), Том Риччьярделли (Security Guard), Тони Дуп (Smith), Ксола Малик (Jones), Грэйс Арендс (Darcy), Кимберли Дархэм (Linsey), Скотт Свон (Halloween), Кристен Белл (Belinda), Джейсон Оманн (Big Cat), Скотт С. Браун (Man in Flannel), Мадлен Элизабет (Baby Faced Girlfriend), Брэндон Лэндерс (John), Марк Мартин (Shirtless Guy), Брэндон Мюррэй (Yard Worker), Джон Сильвейра (Man at Post Office)
Описание: Троим журналистам поручают взять интервью у парня, который разместил весьма странное объявление о том, что ищет напарника для путешествий во времени.

Тип релиза: BDRip 720p [HiDt]
Контейнер: MKV
Видео: 1280x544 (2,35:1), 23,976 fps, x264 ~5780 kbps avg, 0.346 bit/pixel
Аудио 1: 48 kHz, AC3 Dolby Digital, 2 ch, 192 kbps (русская, MVO)
Аудио 2: 48 kHz, AC3 Dolby Digital, 3/2 (L,C,R,l,r) + LFE ch, 384 kbps (русская, VO)
Аудио 3: 48 kHz, AC3 Dolby Digital, 3/2 (L,C,R,l,r) + LFE ch, 448 kbps (украинская, MVO)
Аудио 4: 48 kHz, Digital Theater Systems, 3/2 (L,C,R,l,r) + LFE ch, 1509 kbps (английская)
Формат субтитров: softsub (SRT)
Чаптеры: есть

возраст: зрителям, достигшим 16 лет
рейтинг MPAA: лицам до 17 лет обязательно присутствие взрослого

Спонсоры:

lionlegion, Pit33, Володимир, TyNeLo, uarenik, legat, 310763, buddilnik, orest_music, funtruhnet, Uptown, olfed111, vifilo, sigito, Oleksandr, ron_, Рудобородий, lomkovsky, Navarra, igor911, talantgor, Nevestiuk, shambig, velizariy, Batiaruk, vovaz, boblv, shangri-la, leshkm, 5E_koleco, webamator.org.ua, sanekjn, YURIYUXO, stadion.lviv.ua, SunWind, wtr, dimaandr, Xobit, Kalynka Rosso, nazar, knockout, Кость, dimic, Infoserfer, Кумяр, TIPERUS, antoxxa082, yarik_ratnik, nastik., TriVVet, IvanB123456, Roni, Петро21, albioriks, denskipper, avtoboss, yozhh, vdima82, steeple, Gotenot, Лілія, nik, ameks, mikolay, @knygoyid, sashaiv74, Кузьма72, jona, Olegatr, М_а_м_а_й, have got, TarasD, GodSaveUkraine, shtein, Gxost, Олександр, Sturm_UA, Jonsen, lynxnake, OlegVysh, Demetrios, Sirpent, tarand, zalexxx, barbarian, Tank302, Неля Глушко, chaliy, merlin_zaraza, cyclone2000, rybanok27, alex4e, Ingvar, Aussie, loiknazar, olfed111, Sensetivity, cyberprostir, Est, Sepoolka, bandera77, Vikk, Warrog, GrossQX, zavzyata, ValicV, Myshko3007, ghost392, Soarus12345, Fizia, vladyk, Xshot, viter07, Yellow_man, iro4ka_skin, lerk, MisterR, tumick, Leksyk, Chirka, somnambula, MarianB, Mr Yuran, nelester, panama58, Лунсар, Sheldon, stalker_cv, yg, Nikson, fishMD, nemos, hummer.

MediaInfo

ОбщееУникальный идентификатор : 176967956550041256189556646778131177775 (0x8522C9E66308B663A1654D4311B3E12F)Полное имя : \Safety.Not.Guaranteed.2012.720p.BluRay.DTS.x264.mkvФормат : MatroskaВерсия формата : Version 2Размер файла : 4,98 ГбайтПродолжительность : 1 ч. 25 м.Общий поток : 8313 Кбит/секДата кодирования : UTC 2013-10-09 17:00:40Программа кодирования : mkvmerge v4.5.0 ('Speed of Light') сборка от Feb 1 2011 02:10:32Библиотека кодирования : libebml v1.2.0 + libmatroska v1.1.0
ВидеоИдентификатор : 1Формат : AVCФормат/Информация : Advanced Video CodecПрофиль формата : High@L4.1Параметр CABAC формата : ДаПараметр ReFrames формата : 12 кадровИдентификатор кодека : V_MPEG4/ISO/AVCПродолжительность : 1 ч. 25 м.Битрейт : 5780 Кбит/секШирина : 1280 пикселейВысота : 544 пикселяСоотношение сторон : 2,35:1Режим частоты кадров : ПостоянныйЧастота кадров : 23,976 кадра/секЦветовое пространство : YUVСубдискретизация насыщенности : 4:2:0Битовая глубина : 8 битТип развёртки : ПрогрессивнаяБит/(Пиксели*Кадры) : 0.346Размер потока : 3,36 Гбайт (68%)Заголовок : Safety.Not.Guaranteed.2012.720p.BluRay.DD5.1.x264-HiDtБиблиотека кодирования : x264 core 128 r2216 198a7eaНастройки программы : cabac=1 / ref=12 / deblock=1:-3:-3 / analyse=0x3:0x113 / me=tesa / subme=11 / psy=1psy_rd=0.97:0.00 / mixed_ref=1 / me_range=32 / chroma_me=1 / trellis=2 / 8x8dct=1 / cqm=0 / deadzone=21,11 / fast_pskip=0chroma_qp_offset=-2 / threads=12 / lookahead_threads=2 / sliced_threads=0 / nr=0 / decimate=1 / interlaced=0 / bluray_compat=0constrained_intra=0 / bframes=6 / b_pyramid=2 / b_adapt=2 / b_bias=0 / direct=3 / weightb=1 / open_gop=0 / weightp=2 / keyint=240keyint_min=23 / scenecut=40 / intra_refresh=0 / rc_lookahead=40 / rc=2pass / mbtree=1 / bitrate=5780 / ratetol=1.0 / qcomp=0.70qpmin=0 / qpmax=69 / qpstep=4 / cplxblur=20.0 / qblur=0.5 / ip_ratio=1.40 / aq=1:0.90Язык : EnglishDefault : ДаForced : Нет
Аудио #1Идентификатор : 2Формат : AC-3Формат/Информация : Audio Coding 3Расширение режима : CM (complete main)Параметр Endianness формата : BigИдентификатор кодека : A_AC3Продолжительность : 1 ч. 25 м.Вид битрейта : ПостоянныйБитрейт : 192 Кбит/секКаналы : 2 каналаРасположение каналов : Front: L RЧастота : 48,0 КГцБитовая глубина : 16 битМетод сжатия : С потерямиРазмер потока : 118 Мбайт (2%)Заголовок : MVO ac3 2.0 192 kbpsЯзык : RussianDefault : ДаForced : Нет
Аудио #2Идентификатор : 3Формат : AC-3Формат/Информация : Audio Coding 3Расширение режима : CM (complete main)Параметр Endianness формата : BigИдентификатор кодека : A_AC3Продолжительность : 1 ч. 25 м.Вид битрейта : ПостоянныйБитрейт : 384 Кбит/секКаналы : 6 каналовРасположение каналов : Front: L C R, Side: L R, LFEЧастота : 48,0 КГцБитовая глубина : 16 битМетод сжатия : С потерямиРазмер потока : 236 Мбайт (5%)Заголовок : VO ac3 5.1 384 kbpsЯзык : RussianDefault : НетForced : Нет
Аудио #3Идентификатор : 4Формат : AC-3Формат/Информация : Audio Coding 3Расширение режима : CM (complete main)Параметр Endianness формата : BigИдентификатор кодека : A_AC3Продолжительность : 1 ч. 25 м.Вид битрейта : ПостоянныйБитрейт : 448 Кбит/секКаналы : 6 каналовРасположение каналов : Front: L C R, Side: L R, LFEЧастота : 48,0 КГцБитовая глубина : 16 битМетод сжатия : С потерямиРазмер потока : 275 Мбайт (5%)Заголовок : MVO ac3 5.1 448 kbpsЯзык : UkrainianDefault : НетForced : Нет
Аудио #4Идентификатор : 5Формат : DTSФормат/Информация : Digital Theater SystemsРежим : 16Параметр Endianness формата : BigИдентификатор кодека : A_DTSПродолжительность : 1 ч. 25 м.Вид битрейта : ПостоянныйБитрейт : 1509 Кбит/секКаналы : 6 каналовРасположение каналов : Front: L C R, Side: L R, LFEЧастота : 48,0 КГцБитовая глубина : 24 битМетод сжатия : С потерямиРазмер потока : 926 Мбайт (18%)Заголовок : Original dts 5.1 1509 kbpsЯзык : EnglishDefault : НетForced : Нет
Текст #1Идентификатор : 6Формат : UTF-8Идентификатор кодека : S_TEXT/UTF8Идентификатор кодека/Информация : UTF-8 Plain TextЗаголовок : Sub-fullЯзык : RussianDefault : НетForced : Нет
Текст #2Идентификатор : 7Формат : UTF-8Идентификатор кодека : S_TEXT/UTF8Идентификатор кодека/Информация : UTF-8 Plain TextЗаголовок : Sub-fullЯзык : EnglishDefault : НетForced : Нет
Текст #3Идентификатор : 8Формат : UTF-8Идентификатор кодека : S_TEXT/UTF8Идентификатор кодека/Информация : UTF-8 Plain TextЗаголовок : Sub-full SDHЯзык : EnglishDefault : НетForced : Нет
Текст #4Идентификатор : 9Формат : UTF-8Идентификатор кодека : S_TEXT/UTF8Идентификатор кодека/Информация : UTF-8 Plain TextЗаголовок : Sub-fullЯзык : UkrainianDefault : НетForced : Нет
Меню00:00:00.000 : Chapter 0100:05:57.190 : Chapter 0200:12:43.679 : Chapter 0300:18:08.378 : Chapter 0400:23:40.001 : Chapter 0500:26:50.191 : Chapter 0600:31:09.409 : Chapter 0700:34:22.769 : Chapter 0800:38:21.549 : Chapter 0900:46:51.266 : Chapter 1000:51:50.023 : Chapter 1100:57:20.395 : Chapter 1201:05:30.676 : Chapter 1301:09:57.610 : Chapter 1401:15:03.332 : Chapter 1501:17:46.828 : Chapter 16

Видеоряд от HiDt

▓▓▓▓████▓▓▓▓ ▓▓▓▓████▓▓▓▓ ▓▓▓▓▓▓ ▓▓██▓▓████████████▓▓ ████▓▓ ▓▓████ ▓▓██▓▓ ▓▓████ ▓▓▓▓████▓▓ ▓▓▓▓ ████▓▓ ▓▓████ ▓▓ ▓▓████ ▓▓████ ▓▓██▓▓ ████▓▓ ▓▓████ ▓▓████ ████▓▓ ▓▓██▓▓ ████▓▓ ▓▓████ ▓▓▓▓████ ▓▓████ ▓▓████ ▓▓████████▓▓ ████████████████████ ▓▓████ ▓▓████ ▓▓████ ▓▓██▓▓ ████▓▓▓▓▓▓▓▓▓▓▓▓████ ▓▓████ ▓▓████ ▓▓████ ▓▓██▓▓ ████▓▓ ▓▓████ ▓▓████ ▓▓████ ▓▓██▓▓ ▓▓██▓▓ ████▓▓ ▓▓████ ▓▓████ ▓▓████ ████▓▓ ▓▓██▓▓ ████▓▓ ▓▓████ ▓▓████ ▓▓████ ▓▓██▓▓ ▓▓██▓▓ ▓▓████▓▓ ▓▓████▓▓ ▓▓████ ▓▓██████ ▓▓██▓▓ ▓▓████▓▓▓▓▓▓▓▓▓▓▓▓▓▓▓▓ ▓▓▓▓▓▓▓▓▓▓▓▓▓▓▓▓▓▓▓▓▓▓▓▓▓▓▓▓▓▓▓▓▓▓▓▓▓▓▓▓ ▓▓▓▓▓▓▓
Hi-Definition Torrents______________________________________________________________________________
Safety Not Guaranteed (2012)
Plot:
Three magazine employees head out on an assignment tointerview a guy who placed a classified ad seeking acompanion for time travel.
Safety.Not.Guaranteed.2012.720p.BluRay.DD5.1.x264-HiDt
General Information:
RUNTIME........: 1h 25mn 47sSIZE...........: 3.85 GBVIDEO CODEC....: x264 (L4.1)RESOLUTION.....: 1280x544BITRATE........: ~ 5780 KbpsFRAMERATE......: 23.976 fpsAUDIO..........: English DD 5.1 @ 640 KbpsSUBTITLES......: English, English-SDH, Bulgarian, Greek, Romanian, Spanish - srtCHAPTERS.......: YESSOURCE.........: 1080p Blu-ray AVC DTS-HD MA 5.1-HDChinaGENRE..........: Comedy | Sci-FiRATING.........: 7.2/10 from 8,685 usersIMDB link......: http://www.imdb.com/title/tt1862079/
Other:
RELEASE DATE...: 24.10.2012CONTACT........: hidt.group@gmail.com

Сравнение

. Source HiDt 5780 kbps SPARKS 5700 kbps


Скриншоты


Скачать

Скачать торрент!

Как скачивать? · Что такое торрент? · Рейтинг и ограничения

Сайт не распространяет и не хранит электронные версии произведений, а лишь предоставляет доступ к создаваемому пользователями каталогу ссылок на торрент-файлы, которые содержат только списки хеш-сумм

[Профиль] [ЛС]
Показать сообщения:    
Ответить на тему

Текущее время: Сегодня 06:03

Часовой пояс: GMT + 4



Вы не можете начинать темы
Вы не можете отвечать на сообщения
Вы не можете редактировать свои сообщения
Вы не можете удалять свои сообщения
Вы не можете голосовать в опросах
Вы не можете прикреплять файлы к сообщениям
Вы не можете скачивать файлы