Каблуки / Bootmen (Дэин Перри / Dein Perry) [2000, США, Австралия, комедия, драма, HDTV 1080i] MVO

Ответить на тему
 
Автор Сообщение

user ®

Стаж: 7 лет 7 месяцев

Сообщений: 20008

Пост Пост: #1 от 09-Окт-2013 23:55

[Цитировать]

Каблуки / Bootmen
Страна: США, Австралия
Студия: 20th Century Fox Distribution (Australia) , Fox Searchlight Pictures (USA)
Жанр: комедия, драма
Год выпуска: 2000
Продолжительность: 01:28:29
Перевод: Профессиональный (многоголосый закадровый)
Cубтитры: нет
Оригинальная аудиодорожка: нет
Режиссер: Дэин Перри / Dein Perry
В ролях: Адам Гарсия, Софи Ли, Сэм Уортингтон, Уильям Заппа, Ричард Картер, Сьюзи Портер, Энтони Хэйес, Кристофер Хорси, Drew Kaluski, Мэтт Ли
Описание: Чтобы прокормить себя, Шону приходится работать сталеваром на заводе по две смены, и под конец рабочего дня у него плавится защитная маска на лице. Но ему кажется, что он достоин большего, ведь он — первоклассный танцор.
И когда ему выпадает шанс покончить с надоевшим до тошноты образом жизни, он с радостью соглашается принять участие в танцевальном шоу чечеточников.
Его брат, Митч, тоже талантливый танцор, но у него неприятности с местными бандитами из-за непонятного никому хобби — очень уж он любит угонять чужие машины.
Еще у Митча неприятности с Шоном — полюбили они одну и ту же девушку и теперь поделить ее не могут.
Доп. информация: HDTV rip 1080i , Платформа HD , в двух местах срыв трансляции - всего не более 2-х минут
Сэмпл:http://www.sendspace.com/file/clhj90
Тип релиза: HDTV 1080i
Контейнер: TS
Видео: MPEG4 Video (H264) 1920x1080 25fps
Аудио: Dolby AC3 48000Hz stereo 448kbps RUS

MediaInfo

ID : 1 (0x1)
Complete name : D:\КАБЛУКИ BOOTMEN (2000)\КАБЛУКИ BOOTMEN (2000)\КАБЛУКИ BOOTMEN (2000)_new.ts
Format : MPEG-TS
File size : 5.52 GiB
Duration : 1h 28mn
Overall bit rate mode : Variable
Overall bit rate : 8 934 Kbps
Maximum Overall bit rate : 35.5 Mbps
Video
ID : 4113 (0x1011)
Menu ID : 1 (0x1)
Format : AVC
Format/Info : Advanced Video Codec
Format profile : Main@L4.0
Format settings, CABAC : Yes
Format settings, ReFrames : 4 frames
Codec ID : 27
Duration : 1h 28mn
Bit rate mode : Variable
Bit rate : 8 040 Kbps
Maximum bit rate : 40.0 Mbps
Width : 1 920 pixels
Height : 1 080 pixels
Display aspect ratio : 16:9
Frame rate : 25.000 fps
Standard : Component
Color space : YUV
Chroma subsampling : 4:2:0
Bit depth : 8 bits
Scan type : Interlaced
Scan order : Top Field First
Bits/(Pixel*Frame) : 0.155
Stream size : 4.97 GiB (90%)
Color primaries : BT.709
Transfer characteristics : BT.709
Matrix coefficients : BT.709
Audio
ID : 4352 (0x1100)
Menu ID : 1 (0x1)
Format : AC-3
Format/Info : Audio Coding 3
Mode extension : CM (complete main)
Format settings, Endianness : Big
Codec ID : 129
Duration : 1h 28mn
Bit rate mode : Constant
Bit rate : 448 Kbps
Channel(s) : 2 channels
Channel positions : Front: L R
Sampling rate : 48.0 KHz
Bit depth : 16 bits
Compression mode : Lossy
Stream size : 284 MiB (5%)
Language : Russian

Скриншоты

Торрент перезалит 06.10.2013-
Скачать

Скачать торрент!

Как скачивать? · Что такое торрент? · Рейтинг и ограничения

Сайт не распространяет и не хранит электронные версии произведений, а лишь предоставляет доступ к создаваемому пользователями каталогу ссылок на торрент-файлы, которые содержат только списки хеш-сумм

[Профиль] [ЛС]
Показать сообщения:    
Ответить на тему

Текущее время: Сегодня 07:07

Часовой пояс: GMT + 4



Вы не можете начинать темы
Вы не можете отвечать на сообщения
Вы не можете редактировать свои сообщения
Вы не можете удалять свои сообщения
Вы не можете голосовать в опросах
Вы не можете прикреплять файлы к сообщениям
Вы не можете скачивать файлы