Проклятие Чаки / Curse of Chucky (Дон Манчини / Don Mancini) [2013, США, Ужасы, триллер, BDRip 720p] MVO (Viruse Project) + Original Eng + Sub Eng

Ответить на тему
 
Автор Сообщение

user ®

Стаж: 8 лет 5 месяцев

Сообщений: 20007

Пост Пост: #1 от 09-Окт-2013 23:55

[Цитировать]

Проклятие Чаки / Curse of Chucky -Название: Проклятие Чаки
Оригинальное название: Curse of Chucky
Год выпуска: 2013
Жанр: Триллер, ужасы
Выпущено: США
Продолжительность: 01:36:40
Перевод: Любительский (многоголосый закадровый) (ViruseProject)
Cубтитры: английские
Оригинальная аудиодорожка: английский
Режиссер: Дон Манчини / Don Mancini
В ролях: Брэд Дуриф, Даниэль Бисутти, Кевин Андерсон, Эй Мартинез, Фиона Дуриф, Бреннан Эллиотт, Шэнтал Куэснел, Уилл Войтович, Мейтленд МакКоннелл-О фильме: В центре событий окажется молодая женщина по имени Ника тяжело переживающая самоубийство матери. Ее старшая сестра Барбара — властная, волевая женщина, — приезжает вместе с семьей к Нике, чтобы поддержать ее и уладить дела матери. Пока сестры заняты делом, малолетняя дочь Барбары находит в доме посылку пришедшую от неизвестного адресата, а в ней рыжеволосую куклу Чаки. Вскоре происходит череда кровавых убийств. Ника начинает подозревать, что в убийствах неким образом замешана кукла. По ходу дела выясняется, что у Чаки во всем этом есть особый интерес. Он решил закончить работу которую начал 25 лет назад, и в этот раз он намерен довести дело до кровавого и шокирующего финала.-Релиз:
Озвучка: *Марина Видякина, *Елена Емельянова, *Алла Блаер, *Дмитрий Иванов, *Дмитрий Кравченко, *Алексей Кизуб
Перевод: МЕГАПЫХАРЬ-Сэмпл: http://sendfile.su/878254
Качество видео: BDRip 720p (Рип от: ROVERS)
Формат видео: MKV
Видео: AVC, 1280x720 (16:9), 23.976 fps, 4 959 Kbps (0.224 bit/pixel)
Аудио #1: DTS, 48.0 KHz, 6 ch, 1 510 Kbps, CBR RUS
Аудио #2: DTS, 48.0 KHz, 6 ch, 1 510 Kbps, CBR ENG
-- -
-

Скриншоты



-
-

Медиа Инфо

Complete name : Curse.Of.Chucky.2013.UNRATED.720p.BluRay.DTS.Rus.Eng.Subs.mkv
Format : Matroska
Format version : Version 4 / Version 2
File size : 5.39 GiB
Duration : 1h 36mn
Overall bit rate : 7 980 Kbps
Encoded date : UTC 2013-10-06 20:13:38
Writing application : mkvmerge v6.1.0 ('Old Devil') built on Mar 4 2013 09:10:42
Writing library : libebml v1.3.0 + libmatroska v1.4.0
Video
ID : 1
Format : AVC
Format/Info : Advanced Video Codec
Format profile : High@L3.1
Format settings, CABAC : Yes
Format settings, ReFrames : 5 frames
Codec ID : V_MPEG4/ISO/AVC
Duration : 1h 36mn
Bit rate : 4 959 Kbps
Width : 1 280 pixels
Height : 720 pixels
Display aspect ratio : 16:9
Frame rate mode : Constant
Frame rate : 23.976 fps
Color space : YUV
Chroma subsampling : 4:2:0
Bit depth : 8 bits
Scan type : Progressive
Bits/(Pixel*Frame) : 0.224
Stream size : 3.24 GiB (60%)
Writing library : x264 core 138 r2358 9e941d1
Encoding settings : cabac=1 / ref=5 / deblock=1:0:0 / analyse=0x3:0x133 / me=umh / subme=7 / psy=1 / psy_rd=1.00:0.00 / mixed_ref=1 / me_range=16 / chroma_me=1 / trellis=1 / 8x8dct=1 / cqm=0 / deadzone=21,11 / fast_pskip=0 / chroma_qp_offset=-2 / threads=18 / lookahead_threads=3 / sliced_threads=0 / nr=0 / decimate=1 / interlaced=0 / bluray_compat=0 / constrained_intra=0 / bframes=3 / b_pyramid=2 / b_adapt=2 / b_bias=0 / direct=3 / weightb=1 / open_gop=0 / weightp=2 / keyint=250 / keyint_min=23 / scenecut=40 / intra_refresh=0 / rc_lookahead=50 / rc=2pass / mbtree=1 / bitrate=4959 / ratetol=1.0 / qcomp=0.60 / qpmin=0 / qpmax=69 / qpstep=4 / cplxblur=20.0 / qblur=0.5 / ip_ratio=1.40 / aq=1:1.00
Language : English
Default : Yes
Forced : No
Audio #1
ID : 2
Format : DTS
Format/Info : Digital Theater Systems
Mode : 16
Format settings, Endianness : Big
Codec ID : A_DTS
Duration : 1h 36mn
Bit rate mode : Constant
Bit rate : 1 510 Kbps
Channel(s) : 6 channels
Channel positions : Front: L C R, Side: L R, LFE
Sampling rate : 48.0 KHz
Bit depth : 24 bits
Compression mode : Lossy
Stream size : 1.02 GiB (19%)
Language : Russian
Default : Yes
Forced : No
Audio #2
ID : 3
Format : DTS
Format/Info : Digital Theater Systems
Mode : 16
Format settings, Endianness : Big
Codec ID : A_DTS
Duration : 1h 36mn
Bit rate mode : Constant
Bit rate : 1 509 Kbps
Channel(s) : 6 channels
Channel positions : Front: L C R, Side: L R, LFE
Sampling rate : 48.0 KHz
Bit depth : 24 bits
Compression mode : Lossy
Stream size : 1.02 GiB (19%)
Language : English
Default : No
Forced : No
Text
ID : 4
Format : UTF-8
Codec ID : S_TEXT/UTF8
Codec ID/Info : UTF-8 Plain Text
Language : English
Default : No
Forced : No
Menu
00:00:00.000 : en:00:00:00.000
00:04:45.410 : en:00:04:45.410
00:08:48.486 : en:00:08:48.486
00:15:30.680 : en:00:15:30.680
00:20:24.306 : en:00:20:24.306
00:27:34.653 : en:00:27:34.653
00:32:42.502 : en:00:32:42.502
00:37:47.140 : en:00:37:47.140
00:43:51.671 : en:00:43:51.671
00:46:54.186 : en:00:46:54.186
00:51:29.336 : en:00:51:29.336
00:56:46.903 : en:00:56:46.903
01:01:29.686 : en:01:01:29.686
01:05:34.347 : en:01:05:34.347
01:09:09.270 : en:01:09:09.270
01:13:41.250 : en:01:13:41.250
01:20:23.235 : en:01:20:23.235
01:24:53.505 : en:01:24:53.505
01:28:31.765 : en:01:28:31.765
01:31:47.460 : en:01:31:47.460
Скачать

Скачать торрент!

Как скачивать? · Что такое торрент? · Рейтинг и ограничения

Сайт не распространяет и не хранит электронные версии произведений, а лишь предоставляет доступ к создаваемому пользователями каталогу ссылок на торрент-файлы, которые содержат только списки хеш-сумм

[Профиль] [ЛС]
Показать сообщения:    
Ответить на тему

Текущее время: Сегодня 00:12

Часовой пояс: GMT + 4



Вы не можете начинать темы
Вы не можете отвечать на сообщения
Вы не можете редактировать свои сообщения
Вы не можете удалять свои сообщения
Вы не можете голосовать в опросах
Вы не можете прикреплять файлы к сообщениям
Вы не можете скачивать файлы