Всё напрасно / Просочившиеся в канализацию / Down the drain (Роберт С. Хьюз / Robert C. Hughes) [1990, США, комедия, криминал, HDTV 1080i] DVO (НТВ+) + AVO (Андрей Гаврилов) + Original Eng

Ответить на тему
 
Автор Сообщение

user ®

Стаж: 7 лет 7 месяцев

Сообщений: 20008

Пост Пост: #1 от 09-Окт-2013 23:55

[Цитировать]

Всё напрасно / Просочившиеся в канализацию / Down the drain
Страна: США
Студия: Epic Productions
Жанр: комедия, криминал
Год выпуска: 1990
Продолжительность: 01:41:16
Перевод 1: Профессиональный (двухголосый закадровый) НТВ+
Перевод 2: Авторский (одноголосый закадровый) Андрей Гаврилов
Cубтитры: нет
Оригинальная аудиодорожка: английский
Режиссер: Роберт С. Хьюз / Robert C. Hughes
В ролях: Эндрю Стивенс, Тери Копли, Джон Матушак, Джозеф Кампанелла, Марко Фьорини, Мики Мортон, Ник ДеМауро, Барри Нейкраг, Кен Фори, Сэл Лопес и другие
Описание: Адвокат Виктор Скалиа, добившись оправдания нескольких воров и грабителей разных мастей, сколотил из них собственную команду — для того, чтобы обчистить сейфы одного из банков по заданию клиента. Ограбление они решили осуществить через систему канализации. Проблемы возникли потом — после того, как Виктор, удирая от головорезов «заказчика», которым оказался лаварь мафии, попал в автокатастрофу, и весть о его гибели разнесли все местные телестудии. Бывшие подельщики адвоката, бандиты Роджерса и сам Виктор со своей подружкой Кэти Миллер устремились в погоню за награбленным, пытаясь перехватить добычу друг у друга.

Доп. информация:
За дорогу с Андреем Гавриловым спасибо stark80
За оригинальную дорогу спасибо dvdbox
Тип релиза: HDTV 1080i
Контейнер: MKV
Видео: AVC 1920x1080 (16:9)) 25.0fps Bit rate 6322Kbps
Аудио 1: MP2 48.0 KHz 2ch. 192kbps rus
Аудио 2: AC3 48.0 KHz 2ch. 192kbps rus
Аудио 3: AC3 48.0 KHz 2ch. 192kbps eng

MediaInfo

General
Complete name : E:\torrent\Prosochivshiesya_v_kanalizacziyu_HDTV 1080i.mkv
Format : Matroska
File size : 4.98 GiB
Duration : 1h 41mn
Overall bit rate : 7 038 Kbps
Encoded date : UTC 2013-10-09 06:54:49
Writing application : mkvmerge v5.7.0 ('The Whirlwind') built on Jul 8 2012 20:08:51
Writing library : libebml v1.2.3 + libmatroska v1.3.0
Video
ID : 1
Format : AVC
Format/Info : Advanced Video Codec
Format profile : High@L4.0
Format settings, CABAC : Yes
Format settings, ReFrames : 3 frames
Format settings, GOP : M=1, N=64
Muxing mode : Container profile=Unknown@4.0
Codec ID : V_MPEG4/ISO/AVC
Duration : 1h 41mn
Bit rate : 6 322 Kbps
Width : 1 920 pixels
Height : 1 080 pixels
Display aspect ratio : 16:9
Frame rate : 50.000 fps
Original frame rate : 25.000 fps
Standard : Component
Color space : YUV
Chroma subsampling : 4:2:0
Bit depth : 8 bits
Scan type : Interlaced
Scan order : Top Field First
Bits/(Pixel*Frame) : 0.061
Stream size : 4.47 GiB (90%)
Title : Prosochivshiesya_v_kanalizacziyu_HDTV 1080i
Color primaries : BT.709-5, BT.1361, IEC 61966-2-4, SMPTE RP177
Transfer characteristics : BT.709-5, BT.1361
Matrix coefficients : BT.709-5, BT.1361, IEC 61966-2-4 709, SMPTE RP177
Audio #1
ID : 2
Format : MPEG Audio
Format version : Version 1
Format profile : Layer 2
Codec ID : A_MPEG/L2
Codec ID/Hint : MP2
Duration : 1h 41mn
Bit rate mode : Constant
Bit rate : 192 Kbps
Channel(s) : 2 channels
Sampling rate : 48.0 KHz
Stream size : 139 MiB (3%)
Title : Prosochivshiesya_v_kanalizacziyu_MP2_DVO_NTV+
Language : Russian
Audio #2
ID : 3
Format : AC-3
Format/Info : Audio Coding 3
Mode extension : CM (complete main)
Codec ID : A_AC3
Duration : 1h 41mn
Bit rate mode : Constant
Bit rate : 192 Kbps
Channel(s) : 2 channels
Channel positions : Front: L R
Sampling rate : 48.0 KHz
Bit depth : 16 bits
Stream size : 139 MiB (3%)
Title : Prosochivshiesya_v_kanalizacziyu_AC3_AVO_A. Gavrilov
Language : Russian
Audio #3
ID : 4
Format : AC-3
Format/Info : Audio Coding 3
Mode extension : CM (complete main)
Codec ID : A_AC3
Duration : 1h 41mn
Bit rate mode : Constant
Bit rate : 192 Kbps
Channel(s) : 2 channels
Channel positions : Front: L R
Sampling rate : 48.0 KHz
Bit depth : 16 bits
Stream size : 139 MiB (3%)
Title : Prosochivshiesya_v_kanalizacziyu_original eng

Скриншот с названием фильма

Скриншоты


Скачать

Скачать торрент!

Как скачивать? · Что такое торрент? · Рейтинг и ограничения

Сайт не распространяет и не хранит электронные версии произведений, а лишь предоставляет доступ к создаваемому пользователями каталогу ссылок на торрент-файлы, которые содержат только списки хеш-сумм

[Профиль] [ЛС]
Показать сообщения:    
Ответить на тему

Текущее время: Сегодня 02:15

Часовой пояс: GMT + 4



Вы не можете начинать темы
Вы не можете отвечать на сообщения
Вы не можете редактировать свои сообщения
Вы не можете удалять свои сообщения
Вы не можете голосовать в опросах
Вы не можете прикреплять файлы к сообщениям
Вы не можете скачивать файлы