Круг боли / Circle of Pain (Дэниэл Зирилли / Daniel Zirilli) [2010, США, боевик, драма, BDRemux 1080p] MVO (НТВ+) + DVO + Original (Eng) + Subs (Eng)

Ответить на тему
 
Автор Сообщение

user ®

Стаж: 7 лет 7 месяцев

Сообщений: 20008

Пост Пост: #1 от 09-Окт-2013 23:55

[Цитировать]

Круг боли / Circle of Pain

-
-Страна: США
Студия: Legacy Filmworks
Жанр: боевик, драма
Год выпуска: 2010
Продолжительность: 01:28:32--Перевод 1: Профессиональный (многоголосый закадровый) НТВ+
Перевод 2: Любительский (двухголосый закадровый)
Cубтитры: английские
Оригинальная аудиодорожка: английский--Режиссер: Дэниэл Зирилли / Daniel Zirilli
В ролях: Тони Шиена, Дин Кэйн, Бай Лин, Хит Херринг, Луис Хертэм, Роджер Уэрта, Кевин «Кимбо Слайс» Фергюсон, Джон Ли, Джейс Джинес...--Описание: После несчастного случая в борьбе по боям без правил Дэлтон Хунт ушел из спорта. Неспособный пережить трагедию, он потерял семью и цель в жизни. Но однажды ему выпадает шанс сразиться с действующим непобедимым чемпионом, но для победы ему надо уговорить своего тренера. И он выходит на ринг…--imdb | kinopoisk | Сэмпл--Тип релиза: BDRemux 1080p [Circle.of.Pain.2010.DUAL.COMPLETE.BLURAY-SMAHD]
Контейнер: MKV
Видео: MPEG-4 AVC / 24994 kbps / 1920x1080 / 24 fps / 16:9 / High Profile 4.1
Аудио 1: AC3 / 2.0 / 48 kHz / 192 kbps / 16 bits |MVO, НТВ+|
Аудио 2: AC3 / 5.1 / 48 kHz / 448 kbps / 16 bits |DVO|
Аудио 3: DTS-HD Master Audio / 5.1 / 48 kHz / 2574 kbps / 24 bits (DTS Core: 5.1 / 48 kHz / 1509 kbps / 24 bits) |original|
Формат субтитров: softsub [SRT]

MediaInfo

ОбщееУникальный идентификатор : 239869374153171129320772746905775906939 (0xB475293A117B7A8F8FC4EEBA92AE207B)Полное имя : G:\HD\Круг боли.2010.Blu-Ray.Remux.(1080p).mkvФормат : MatroskaВерсия формата : Version 2Размер файла : 17,4 ГбайтПродолжительность : 1 ч. 28 м.Режим общего битрейта : ПеременныйОбщий поток : 28,2 Мбит/секДата кодирования : UTC 2013-10-09 15:15:25Программа кодирования : mkvmerge v5.8.0 ('No Sleep / Pillow') built on Sep 2 2012 15:37:04Библиотека кодирования : libebml v1.2.3 + libmatroska v1.3.0Attachment : Yes
ВидеоИдентификатор : 1Формат : AVCФормат/Информация : Advanced Video CodecПрофиль формата : High@L4.1Параметр CABAC формата : ДаПараметр ReFrames формата : 4 кадраРежим смешивания : Container profile=Unknown@0.0Идентификатор кодека : V_MPEG4/ISO/AVCПродолжительность : 1 ч. 28 м.Вид битрейта : ПеременныйМаксимальный битрейт : 33,0 Мбит/секШирина : 1920 пикселейВысота : 1080 пикселейСоотношение сторон : 16:9Режим частоты кадров : ПостоянныйЧастота кадров : 24,000 кадра/секЦветовое пространство : YUVСубдискретизация насыщенности : 4:2:0Битовая глубина : 8 битТип развёртки : ПрогрессивнаяDefault : ДаForced : НетОсновные цвета : BT.709Характеристики трансфера : BT.709Коэффициенты матрицы : BT.709
Аудио #1Идентификатор : 2Формат : AC-3Формат/Информация : Audio Coding 3Расширение режима : CM (complete main)Параметр Endianness формата : BigИдентификатор кодека : A_AC3Продолжительность : 1 ч. 28 м.Вид битрейта : ПостоянныйБитрейт : 192 Кбит/секКаналы : 2 каналаРасположение каналов : Front: L RЧастота : 48,0 КГцБитовая глубина : 16 битМетод сжатия : С потерямиРазмер потока : 122 Мбайт (1%)Заголовок : MVO, НТВ+Язык : RussianDefault : ДаForced : Нет
Аудио #2Идентификатор : 3Формат : AC-3Формат/Информация : Audio Coding 3Расширение режима : CM (complete main)Параметр Endianness формата : BigИдентификатор кодека : A_AC3Продолжительность : 1 ч. 28 м.Вид битрейта : ПостоянныйБитрейт : 448 Кбит/секКаналы : 6 каналовРасположение каналов : Front: L C R, Side: L R, LFEЧастота : 48,0 КГцБитовая глубина : 16 битМетод сжатия : С потерямиРазмер потока : 284 Мбайт (2%)Заголовок : DVOЯзык : RussianDefault : НетForced : Нет
Аудио #3Идентификатор : 4Формат : DTSФормат/Информация : Digital Theater SystemsПрофиль формата : MA / CoreРежим : 16Параметр Endianness формата : BigИдентификатор кодека : A_DTSПродолжительность : 1 ч. 28 м.Вид битрейта : ПеременныйБитрейт : Неизвестно / 1509 Кбит/секКаналы : 6 каналовРасположение каналов : Front: L C R, Side: L R, LFEЧастота : 48,0 КГцБитовая глубина : 24 битМетод сжатия : Без потерь / LossyЯзык : EnglishDefault : НетForced : Нет
ТекстИдентификатор : 5Формат : UTF-8Идентификатор кодека : S_TEXT/UTF8Идентификатор кодека/Информация : UTF-8 Plain TextЯзык : EnglishDefault : НетForced : Нет
Меню00:00:00.000 : :Chapter 0100:06:42.833 : :Chapter 0200:10:37.625 : :Chapter 0300:15:10.000 : :Chapter 0400:19:09.000 : :Chapter 0500:25:43.083 : :Chapter 0600:30:16.833 : :Chapter 0700:35:19.458 : :Chapter 0800:40:01.333 : :Chapter 0900:46:48.333 : :Chapter 1000:52:14.541 : :Chapter 1101:01:49.208 : :Chapter 1201:05:22.458 : :Chapter 1301:12:18.500 : :Chapter 1401:18:38.500 : :Chapter 1501:26:27.625 : :Chapter 16

Скриншоты


Скачать

Скачать торрент!

Как скачивать? · Что такое торрент? · Рейтинг и ограничения

Сайт не распространяет и не хранит электронные версии произведений, а лишь предоставляет доступ к создаваемому пользователями каталогу ссылок на торрент-файлы, которые содержат только списки хеш-сумм

[Профиль] [ЛС]
Показать сообщения:    
Ответить на тему

Текущее время: Сегодня 22:33

Часовой пояс: GMT + 4



Вы не можете начинать темы
Вы не можете отвечать на сообщения
Вы не можете редактировать свои сообщения
Вы не можете удалять свои сообщения
Вы не можете голосовать в опросах
Вы не можете прикреплять файлы к сообщениям
Вы не можете скачивать файлы