Судная ночь / The Purge (Джеймс ДеМонако / James DeMonaco) [2013 , США, Франция , триллер, ужасы , HDRip , DUB, Лицензия]

Ответить на тему
 
Автор Сообщение

LORN-V ®

Пол:

Стаж: 4 года 6 месяцев

Сообщений: 1185

Откуда: Munchen

Пост Пост: #1 от 09-Окт-2013 17:26

[Цитировать]

Судная ночь / The Purge
«Одну ночь в году дозволено все. Главное - дожить до рассвета»


Год выпуска: 2013
Страна: США, Франция
Жанр: триллер, ужасы
Продолжительность: 01:25:18
Перевод: Профессиональный (Дубляж) [Лицензия]
Режиссер: Джеймс ДеМонако / James DeMonaco
Бюджет: $3 000 000
Сборы в США: $64 473 115
Сборы в России: $1 145 799
Сборы в мире: $85 889 934
Мировая премьера: 2 мая 2013
Релиз на DVD: 10 октября 2013
Релиз на Blu-ray: 10 октября 2013-В ролях: Итан Хоук (James Sandin), Лина Хиди (Mary Sandin), Макс Буркхолдер (Charlie Sandin), Аделаида Кэйн (Zoey Sandin), Эдвин Ходж (Bloody Stranger), Риз Уэйкфилд (Polite Leader), Тони Оллер (Henry), Ария Барейкис (Mrs. Grace Ferrin), Том Йи (Mr. Cali), Крис Малки (Mr. Halverson), Тиша Френч (Mrs. Halverson), Дэна Банч (Mr. Ferrin)-
Мир будущего - мир без преступности... безработицы... войн. И все это благодаря одной ночи в году, когда можно отправить на тот свет любого - злобного босса, шумных соседей, надоевших родственников. В Судную ночь дозволено все - главное дожить до рассвета.-kinopoisk.ru: 5.939 (12 398)
imdb.com: 5.50 (36 150)
MPAA: R - Лицам до 17 лет обязательно присутствие взрослого-
Качество: HDRip
Формат: AVI
Видео кодек: XviD
Аудио кодек: AC3
Видео: XviD, 720x304 (2.35:1), 1900 kbps, 23,976 fps, 0,362 bpp
Аудио: AC3 / 5.1 / 48 kHz / 448 kbps / 16 bit

MI

Format : AVI
Format/Info : Audio Video Interleave
File size : 1.40 GiB
Duration : 1h 25mn
Overall bit rate : 2 358 Kbps
Writing application : VirtualDubModRus 1.5.10.2 (build 2542/release)
Writing library : VirtualDubMod build 2542/release
Video
ID : 0
Format : MPEG-4 Visual
Format profile : Advanced Simple@L5
Format settings, BVOP : 2
Format settings, QPel : No
Format settings, GMC : No warppoints
Format settings, Matrix : Custom
Codec ID : XVID
Codec ID/Hint : XviD
Duration : 1h 25mn
Bit rate : 1 901 Kbps
Width : 720 pixels
Height : 304 pixels
Display aspect ratio : 2.35:1
Frame rate : 23.976 fps
Color space : YUV
Chroma subsampling : 4:2:0
Bit depth : 8 bits
Scan type : Progressive
Compression mode : Lossy
Bits/(Pixel*Frame) : 0.362
Stream size : 1.13 GiB (81%)
Writing library : XviD 1.2.1 (UTC 2008-12-04)
Audio
ID : 1
Format : AC-3
Format/Info : Audio Coding 3
Mode extension : CM (complete main)
Codec ID : 2000
Duration : 1h 25mn
Bit rate mode : Constant
Bit rate : 448 Kbps
Channel(s) : 6 channels
Channel positions : Front: L C R, Side: L R, LFE
Sampling rate : 48.0 KHz
Bit depth : 16 bits
Compression mode : Lossy
Stream size : 273 MiB (19%)
Alignment : Split accross interleaves
Interleave, duration : 42 ms (1.00 video frame)
Interleave, preload duration : 500 ms

Скачать

Скачать торрент!

Как скачивать? · Что такое торрент? · Рейтинг и ограничения

Сайт не распространяет и не хранит электронные версии произведений, а лишь предоставляет доступ к создаваемому пользователями каталогу ссылок на торрент-файлы, которые содержат только списки хеш-сумм


_________________
[Профиль] [ЛС]
Показать сообщения:    
Ответить на тему

Текущее время: Сегодня 18:06

Часовой пояс: GMT + 4



Вы не можете начинать темы
Вы не можете отвечать на сообщения
Вы не можете редактировать свои сообщения
Вы не можете удалять свои сообщения
Вы не можете голосовать в опросах
Вы не можете прикреплять файлы к сообщениям
Вы не можете скачивать файлы