Ночной поезд до Лиссабона / Night Train to Lisbon / Nachtzug nach Lissabon (Билле Аугуст / Bille August) [2013, Германия, Швейцария, Португалия, триллер, мелодрама, детектив, HDRip] + Sub Rus + Original Eng

Ответить на тему
 
Автор Сообщение

user ®

Стаж: 7 лет 7 месяцев

Сообщений: 20008

Пост Пост: #1 от 09-Окт-2013 16:00

[Цитировать]

Ночной поезд до Лиссабона / Night Train to Lisbon / Nachtzug nach Lissabon
Страна: Германия, Швейцария, Португалия
Жанр: триллер, мелодрама, детектив
Год выпуска: 2013
Продолжительность: 01:46:30
Перевод: Субтитры
Cубтитры: русские
Оригинальная аудиодорожка: английский
Режиссер: Билле Аугуст / Bille August
В ролях: Джереми Айронс
Мелани Лоран
Джек Хьюстон
Мартина Гедек
Лена Улин
Аугуст Диль
Бруно Ганц
Кристофер Ли
Шарлотта Рэмплинг
Том Кортни
Описание: Раймунд Григориус, швейцарский профессор древних языков, спасает португальскую женщину от самоубийства и находит у нее книгу, написанную португальским автором Амадеу ди Праду, о сопротивлении диктаторскому режиму Антонио ди Оливейра Салазара. Полностью поглощенный книгой главный герой посвящает свою жизнь изучению португальской истории в целом, и в часности работам Амадеу ди Праду.
Доп. информация: http://www.imdb.com/title/tt1654523/
http://www.kinopoisk.ru/film/523402/
Сэмпл: http://multi-up.com/910498
Качество видео: HDRip
Формат видео: AVI
Видео: 640x352 (1.82:1) 25 fps XviD MPEG-4 782 kbps avg 0.14 bit/pixel 599.59 Mb
Аудио: 48 kHz MPEG Layer 3 2 ch 128.00 kbps avg 1:46:30.399 / 97.51 Mb
Формат субтитров: softsub (SRT) перевод kon2011
110
00:14:12,280 --> 00:14:15,480
У него с Амадеу были
довольно сложные отношения.
111
00:14:15,640 --> 00:14:19,920
'Но с точки зрения вечности
это не имеет большого значения...'
112
00:14:20,720 --> 00:14:21,920
Да...
113
00:14:22,960 --> 00:14:27,010
- Амадеу это часто говорил.
- Но Амадеу не верил в вечность.
114
00:14:27,960 --> 00:14:29,560
К несчастью, нет.
115
00:14:30,800 --> 00:14:32,960
Я не хотел бы показаться
чрезмерно любопытным, но ...
116
00:14:34,560 --> 00:14:37,720
могу я Вас спросить, как умер Ваш отец?
117
00:14:38,080 --> 00:14:40,120
Нет. Нет, не можете.
118
00:14:45,480 --> 00:14:47,080
Если вы хотите увидеть Амадеу,
119
00:14:47,840 --> 00:14:50,600
то Вы найдете его на кладбище Празереш.
120
00:14:57,680 --> 00:15:00,250
'Когда мы покидаем места, где жили,'
121
00:15:00,520 --> 00:15:02,320
'мы оставляем там частицу самого себя.'
122
00:15:03,840 --> 00:15:07,320
'Мы остаемся там, пусть мы их и покинули.'
123
00:15:08,760 --> 00:15:10,520
'Бывает, что мы можем найти что-то в себе,'
124
00:15:11,040 --> 00:15:14,560
'только, возвратившись туда.'
125
00:15:16,320 --> 00:15:19,480
'Когда мы возвращаемся туда,'
126
00:15:20,040 --> 00:15:22,360
'мы возвращаемся к себе,'
127
00:15:23,440 --> 00:15:26,360
'оставив позади пройденные нами пути.'
128
00:15:28,320 --> 00:15:32,800
'Но, возвратившись к самому себе,
мы становимся одинокими.'
129
00:15:34,360 --> 00:15:36,640
'Значит, именно страх перед одиночеством'
130
00:15:36,800 --> 00:15:39,280
'определяет всю нашу жизнь?'
131
00:15:41,360 --> 00:15:43,200
'Значит именно он не позволяет
нам делать то,
132
00:15:43,360 --> 00:15:46,800
'о чем мы будем позже сожалеть?'
133
00:15:53,000 --> 00:15:56,520
Извините, я ищу могилу
Амадеу де Альмейда Прадо.

MediaInfo

Общее
Полное имя : D:\Night Train to Lisbon 2013\Night Train to Lisbon 2013.avi
Формат : AVI
Формат/Информация : Audio Video Interleave
Размер файла : 701 Мбайт
Продолжительность : 1 ч. 46 м.
Общий поток : 920 Кбит/сек
Библиотека кодирования : VirtualDub build 32842/release
Видео
Идентификатор : 0
Формат : MPEG-4 Visual
Профиль формата : Advanced Simple@L5
Параметр BVOP формата : 2
Параметр QPel формата : Нет
Параметр GMC формата : Без точки перехода
Параметр матрицы формата : Default (H.263)
Режим смешивания : Сжатый битовый поток
Идентификатор кодека : XVID
Идентификатор кодека/Подсказка : XviD
Продолжительность : 1 ч. 46 м.
Битрейт : 782 Кбит/сек
Ширина : 640 пикселей
Высота : 352 пикселя
Соотношение сторон : 16:9
Частота кадров : 25,000 кадров/сек
Цветовое пространство : YUV
Субдискретизация насыщенности : 4:2:0
Битовая глубина : 8 бит
Тип развёртки : Прогрессивная
Метод сжатия : С потерями
Бит/(Пиксели*Кадры) : 0.139
Размер потока : 596 Мбайт (85%)
Библиотека кодирования : XviD 64
Аудио
Идентификатор : 1
Формат : MPEG Audio
Версия формата : Version 1
Профиль формата : Layer 3
Режим : Joint stereo
Расширение режима : MS Stereo
Идентификатор кодека : 55
Идентификатор кодека/Подсказка : MP3
Продолжительность : 1 ч. 46 м.
Вид битрейта : Постоянный
Битрейт : 128 Кбит/сек
Каналы : 2 канала
Частота : 48,0 КГц
Метод сжатия : С потерями
Размер потока : 97,5 Мбайт (14%)
Выравнивание : Разделение по промежуткам
Продолжительность промежутка : 40 мс. (1,00 видеокадр)
Время предзагрузки промежутка : 500 мс.

Скриншот c названием фильма

Скриншоты








Скачать

Скачать торрент!

Как скачивать? · Что такое торрент? · Рейтинг и ограничения

Сайт не распространяет и не хранит электронные версии произведений, а лишь предоставляет доступ к создаваемому пользователями каталогу ссылок на торрент-файлы, которые содержат только списки хеш-сумм

[Профиль] [ЛС]
Показать сообщения:    
Ответить на тему

Текущее время: Сегодня 11:55

Часовой пояс: GMT + 4



Вы не можете начинать темы
Вы не можете отвечать на сообщения
Вы не можете редактировать свои сообщения
Вы не можете удалять свои сообщения
Вы не можете голосовать в опросах
Вы не можете прикреплять файлы к сообщениям
Вы не можете скачивать файлы