Копы в юбках / The Heat (Пол Фиг / Paul Feig) [2013, Комедия, криминал, боевик, детектив, BDRip-AVC] Dub + Sub (Eng)

Ответить на тему
 
Автор Сообщение

user ®

Стаж: 7 лет 7 месяцев

Сообщений: 20008

Пост Пост: #1 от 09-Окт-2013 05:00

[Цитировать]

Копы в юбках / The Heat- Страна: СШA / Twentieth Century Fox Film Corporation, Chernin Entertainment, Dune Entertainment
Жанр: Комедия, криминал, боевик, детектив
Год выпуска: 2013
Продолжительность: 02:00:20-Перевод: Дублированный
Cубтитры: английские (полные + SDH / COLORED)
Формат субтитров: softsub (SRT)
Оригинальная аудиодорожка: нет-Режиссер: Пол Фиг / Paul Feig
В ролях: Сандра Буллок, Мелисса МакКарти, Демиан Бишир, Марлон Уайанс, Майкл Рапапорт, Джейн Куртин, Спокен Ризонс, Дэн Баккедаль, Таран Киллэм, Майкл МакДональд
Описание: Агенту ФБР и бостонскому полицейскому доверено ответственное задание: выйти на след и обезвредить опасного преступника. И это даже хорошо, что копы — женщины, ведь бандит-то — русский. А непредсказуемости русской смекалки можно противопоставить только столь же непредсказуемую женскую логику.-
Релиз от:
Автор рипа: potroks-Качество видео: BDRip-AVC [The Heat 2013 2in1 1080p BluRay AVC DTS-HD MA 5.1-CHDBits]
Формат видео: MKV
Видео: H.264, 960x400 (2,40:1), 23,976 fps, 1353 Кbps, 0.147 bit/pixel
Аудио: 48 kHz, AC3 Dolby Digital, 3/2 (L,C,R,l,r) + LFE ch, 384.00 kbps

MediaInfo

Общее
Уникальный идентификатор : 229999153358273706060105102439615288057 (0xAD0839C517A698B0B67F10D33BFBD2F9)
Полное имя : Kopy.v.Jubkah.Extended.2013.RUS.BDRip.x264.-HELLYWOOD.mkv
Формат : Matroska
Версия формата : Version 4 / Version 2
Размер файла : 1,46 Гбайт
Продолжительность : 2 ч. 0 м.
Общий поток : 1739 Кбит/сек
Название фильма : HELLYWOOD - rip by potroks
Дата кодирования : UTC 2013-10-08 16:35:28
Программа кодирования : mkvmerge v5.9.0 ('On The Loose') built on Dec 15 2012 16:39:58
Библиотека кодирования : libebml v1.3.0 + libmatroska v1.4.0
Видео
Идентификатор : 1
Формат : AVC
Формат/Информация : Advanced Video Codec
Профиль формата : High@L4.1
Параметр CABAC формата : Да
Параметр ReFrames формата : 12 кадров
Идентификатор кодека : V_MPEG4/ISO/AVC
Продолжительность : 2 ч. 0 м.
Битрейт : 1353 Кбит/сек
Ширина : 960 пикселей
Высота : 400 пикселей
Соотношение сторон : 2,40:1
Режим частоты кадров : Постоянный
Частота кадров : 23,976 кадра/сек
Цветовое пространство : YUV
Субдискретизация насыщенности : 4:2:0
Битовая глубина : 8 бит
Тип развёртки : Прогрессивная
Бит/(Пиксели*Кадры) : 0.147
Размер потока : 1,11 Гбайт (76%)
Заголовок : The Heat
Библиотека кодирования : x264 core 130 r2273 b3065e6
Настройки программы : cabac=1 / ref=12 / deblock=1:-2:-2 / analyse=0x3:0x133 / me=umh / subme=11 / psy=1 / psy_rd=1.05:0.00 / mixed_ref=1 / me_range=48 / chroma_me=1 / trellis=2 / 8x8dct=1 / cqm=0 / deadzone=21,11 / fast_pskip=0 / chroma_qp_offset=-2 / threads=12 / lookahead_threads=3 / sliced_threads=0 / nr=0 / decimate=0 / interlaced=0 / bluray_compat=0 / constrained_intra=0 / bframes=13 / b_pyramid=2 / b_adapt=2 / b_bias=0 / direct=3 / weightb=1 / open_gop=0 / weightp=2 / keyint=250 / keyint_min=23 / scenecut=40 / intra_refresh=0 / rc_lookahead=60 / rc=2pass / mbtree=0 / bitrate=1353 / ratetol=1.0 / qcomp=0.70 / qpmin=0 / qpmax=69 / qpstep=4 / cplxblur=20.0 / qblur=0.5 / vbv_maxrate=20000 / vbv_bufsize=20000 / nal_hrd=none / ip_ratio=1.30 / pb_ratio=1.25 / aq=2:0.80
Язык : English
Default : Да
Forced : Нет
Аудио
Идентификатор : 2
Формат : AC-3
Формат/Информация : Audio Coding 3
Расширение режима : CM (complete main)
Параметр Endianness формата : Big
Идентификатор кодека : A_AC3
Продолжительность : 2 ч. 0 м.
Вид битрейта : Постоянный
Битрейт : 384 Кбит/сек
Каналы : 6 каналов
Расположение каналов : Front: L C R, Side: L R, LFE
Частота : 48,0 КГц
Битовая глубина : 16 бит
Метод сжатия : С потерями
Размер потока : 331 Мбайт (22%)
Заголовок : чистый звук
Язык : Russian
Default : Да
Forced : Нет
Текст #1
Идентификатор : 3
Формат : UTF-8
Идентификатор кодека : S_TEXT/UTF8
Идентификатор кодека/Информация : UTF-8 Plain Text
Заголовок : SDH - Colored
Язык : English
Default : Нет
Forced : Нет
Текст #2
Идентификатор : 4
Формат : UTF-8
Идентификатор кодека : S_TEXT/UTF8
Идентификатор кодека/Информация : UTF-8 Plain Text
Язык : English
Default : Нет
Forced : Нет
Меню
00:00:00.000 : en:(01)00:00:00:000
00:01:46.022 : en:(02)00:01:46:022
00:05:28.453 : en:(03)00:05:28:453
00:07:15.977 : en:(04)00:07:15:977
00:11:26.435 : en:(05)00:11:26:435
00:14:17.898 : en:(06)00:14:17:898
00:16:38.956 : en:(07)00:16:38:956
00:19:50.939 : en:(08)00:19:50:939
00:23:23.610 : en:(09)00:23:23:610
00:26:18.118 : en:(10)00:26:18:118
00:30:11.976 : en:(11)00:30:11:976
00:34:07.837 : en:(12)00:34:07:837
00:36:27.101 : en:(13)00:36:27:101
00:39:12.975 : en:(14)00:39:12:975
00:44:44.139 : en:(15)00:44:44:139
00:47:59.584 : en:(16)00:47:59:584
00:52:59.801 : en:(17)00:52:59:801
00:56:13.786 : en:(18)00:56:13:786
01:00:57.778 : en:(19)01:00:57:778
01:03:25.801 : en:(20)01:03:25:801
01:05:47.151 : en:(21)01:05:47:151
01:09:34.795 : en:(22)01:09:34:795
01:17:00.574 : en:(23)01:17:00:574
01:23:38.638 : en:(24)01:23:38:638
01:26:51.622 : en:(25)01:26:51:622
01:28:37.019 : en:(26)01:28:37:019
01:31:07.420 : en:(27)01:31:07:420
01:34:08.559 : en:(28)01:34:08:559
01:37:03.233 : en:(29)01:37:03:233
01:39:41.225 : en:(30)01:39:41:225
01:44:20.670 : en:(31)01:44:20:670
01:45:41.501 : en:(32)01:45:41:501
01:48:54.569 : en:(33)01:48:54:569
01:51:15.710 : en:(34)01:51:15:710
01:54:02.710 : en:(35)01:54:02:710
01:55:24.876 : en:(36)01:55:24:876
02:00:19.837 : en:(37)02:00:19:837
Скачать

Скачать торрент!

Как скачивать? · Что такое торрент? · Рейтинг и ограничения

Сайт не распространяет и не хранит электронные версии произведений, а лишь предоставляет доступ к создаваемому пользователями каталогу ссылок на торрент-файлы, которые содержат только списки хеш-сумм

[Профиль] [ЛС]
Показать сообщения:    
Ответить на тему

Текущее время: Сегодня 20:06

Часовой пояс: GMT + 4



Вы не можете начинать темы
Вы не можете отвечать на сообщения
Вы не можете редактировать свои сообщения
Вы не можете удалять свои сообщения
Вы не можете голосовать в опросах
Вы не можете прикреплять файлы к сообщениям
Вы не можете скачивать файлы