Шубка для тучи (Мунавар Мансурходжаев) [1987, Рисованный мультфильм, VHSRip]

Ответить на тему
 
Автор Сообщение

user ®

Стаж: 7 лет 7 месяцев

Сообщений: 20008

Пост Пост: #1 от 09-Окт-2013 01:50

[Цитировать]

Шубка для тучи
Страна: СССР
Жанр: Рисованный мультфильм
Продолжительность: 00:09:56
Год выпуска: 1987
Русские субтитры: нет
Режиссёр: Мунавар Мансурходжаев
Описание: Как волшебник-портной превратил невзрачный уголок в цветущую долину
Доп. информация: „Узбекфильм“
Оператор:А.Шабатаев
Художник:А.Адигамова
Композитор:Г.Александров
Текст песен:Н.Олев
Качество: VHSRip
Формат: AVI
Видео: 720x536 (1.34:1), 25 fps, XviD MPEG-4 ~2000 kbps avg, 0.21 bit/pixel
Аудио: 48 kHz, MPEG Layer 3, 1 ch, ~96.00 kbps avg
Субтитры: нет

Подробные технические данные

Format : AVIFormat/Info : Audio Video InterleaveFile size : 150 MiBDuration : 9mn 56sOverall bit rate : 2 106 KbpsWriting application : VirtualDubMod 1.5.10.3 | www.virtualdub-fr.org || (build 2550/release)Writing library : VirtualDubMod build 2550/release
VideoID : 0Format : MPEG-4 VisualFormat profile : Simple@L1Format settings, BVOP : NoFormat settings, QPel : NoFormat settings, GMC : No warppointsFormat settings, Matrix : Default (H.263)Codec ID : XVIDCodec ID/Hint : XviDDuration : 9mn 56sBit rate : 2 000 KbpsWidth : 720 pixelsHeight : 536 pixelsDisplay aspect ratio : 4:3Frame rate : 25.000 fpsColor space : YUVChroma subsampling : 4:2:0Bit depth : 8 bitsScan type : ProgressiveCompression mode : LossyBits/(Pixel*Frame) : 0.207Stream size : 142 MiB (95%)Writing library : Lavc53.33.0
AudioID : 1Format : MPEG AudioFormat version : Version 1Format profile : Layer 3Codec ID : 55Codec ID/Hint : MP3Duration : 9mn 56sBit rate mode : ConstantBit rate : 96.0 KbpsChannel(s) : 1 channelSampling rate : 48.0 KHzCompression mode : LossyStream size : 6.83 MiB (5%)Alignment : Aligned on interleavesInterleave, duration : 40 ms (1.00 video frame)Interleave, preload duration : 504 ms

Скриншоты

Скачать

Скачать торрент!

Как скачивать? · Что такое торрент? · Рейтинг и ограничения

Сайт не распространяет и не хранит электронные версии произведений, а лишь предоставляет доступ к создаваемому пользователями каталогу ссылок на торрент-файлы, которые содержат только списки хеш-сумм

[Профиль] [ЛС]
Показать сообщения:    
Ответить на тему

Текущее время: Сегодня 10:04

Часовой пояс: GMT + 4



Вы не можете начинать темы
Вы не можете отвечать на сообщения
Вы не можете редактировать свои сообщения
Вы не можете удалять свои сообщения
Вы не можете голосовать в опросах
Вы не можете прикреплять файлы к сообщениям
Вы не можете скачивать файлы