Подари мне немного тепла (Илья Максимов) [2013, драма, мелодрама, HDTVRip]

Ответить на тему
 
Автор Сообщение

user ®

Стаж: 7 лет 7 месяцев

Сообщений: 20008

Пост Пост: #1 от 09-Окт-2013 01:50

[Цитировать]

Подари мне немного тепла
Жанр: драма, мелодрама
Год выпуска: 2013
Продолжительность: 01:28:17
Режиссёр: Илья Максимов
В ролях: Светлана Иванова, Илья Шакунов, Сергей Марин, Сергей Мухин, Алёна Спивак, Олеся Остапенко, Маргарита Иванова, Алина Бабак, Андрей Балякин, Екатерина Мистрюкова, Сергей Назаров, Татьяна Устинова, Алина Бужинская, Наталья Жернакова, Юрий Лопарёв, Татьяна Лучинина, Григорий Меликбекян, Юрий Шайхисламов, Елена Яшнова
Описание: Молодая работница хлебозавода мечтает родить ребенка, но боится повторить поступок своей матери, бросившей детей ради чужого мужчины. Встреча с любимым человеком дает ей возможность забыть о своем страхе и обрести надежду на счастье. Но гибель любимого разрушает ее планы. Кто и как вернет ей надежду?


Сэмпл: http://multi-up.com/911210
Качество видео: HDTVRip (Исх. HDTVRip 720p)
Формат видео: AVI
Видео: 656x368 (1.78:1), 25 fps, XviD build 50 ~1041 kbps avg, 0.17 bit/pixel
Аудио: 48 kHz, MPEG Layer 3, 2 ch, ~128.00 kbps avg

MediaInfo

Общее
Полное имя : S:\Фильмы\Подари мне немного тепла. 2013. HDTVRip (AleksSin).avi
Формат : AVI
Формат/Информация : Audio Video Interleave
Размер файла : 744 Мбайт
Продолжительность : 1 ч. 28 м.
Общий поток : 1179 Кбит/сек
Программа кодирования : VirtualDubMod 1.5.10.3 | www.virtualdub-fr.org || (build 2550/release)
Библиотека кодирования : VirtualDubMod build 2550/release
Видео
Идентификатор : 0
Формат : MPEG-4 Visual
Профиль формата : Advanced Simple@L5
Параметр BVOP формата : 2
Параметр QPel формата : Нет
Параметр GMC формата : Без точки перехода
Параметр матрицы формата : Default (H.263)
Идентификатор кодека : XVID
Идентификатор кодека/Подсказка : XviD
Продолжительность : 1 ч. 28 м.
Битрейт : 1041 Кбит/сек
Ширина : 656 пикс.
Высота : 368 пикс.
Соотношение сторон : 16:9
Частота кадров : 25,000 кадр/сек
Цветовое пространство : YUV
Подвыборка цветности : 4:2:0
Битовая глубина : 8 бит
Тип развёртки : Прогрессивная
Метод сжатия : С потерями
Бит/(Пиксели*Кадры) : 0.172
Размер потока : 657 Мбайт (88%)
Библиотека кодирования : XviD 1.2.1 (UTC 2008-12-04)
Аудио
Идентификатор : 1
Формат : MPEG Audio
Версия формата : Version 1
Профиль формата : Layer 3
Идентификатор кодека : 55
Идентификатор кодека/Подсказка : MP3
Продолжительность : 1 ч. 28 м.
Вид битрейта : Постоянный
Битрейт : 128 Кбит/сек
Каналы : 2 канала
Частота : 48,0 КГц
Метод сжатия : С потерями
Размер потока : 80,8 Мбайт (11%)
Выравнивание : Соединение по промежуткам
Продолжительность промежутка : 40 мс. (1,00 видеокадр)
Время предзагрузки промежутка : 504 ms
Библиотека кодирования : LAME3.99r
Настройки программы : -m s -V 4 -q 2 -lowpass 17 -b 128

Скриншот c названием фильма

Скриншоты

Скачать

Скачать торрент!

Как скачивать? · Что такое торрент? · Рейтинг и ограничения

Сайт не распространяет и не хранит электронные версии произведений, а лишь предоставляет доступ к создаваемому пользователями каталогу ссылок на торрент-файлы, которые содержат только списки хеш-сумм

[Профиль] [ЛС]
Показать сообщения:    
Ответить на тему

Текущее время: Сегодня 12:14

Часовой пояс: GMT + 4



Вы не можете начинать темы
Вы не можете отвечать на сообщения
Вы не можете редактировать свои сообщения
Вы не можете удалять свои сообщения
Вы не можете голосовать в опросах
Вы не можете прикреплять файлы к сообщениям
Вы не можете скачивать файлы