Татуированный дракон / The Tattooed Dragon / Long hu jin gang (Ло Вэй / Lo Wei) [1973, Гонконг, боевые искусства, DVDRip] AVO (Сергей Кузнецов)

Ответить на тему
 
Автор Сообщение

user ®

Стаж: 11 лет

Сообщений: 15151

Пост Пост: #1 от 08-Окт-2013 22:40

[Цитировать]

Татуированный дракон / The Tattooed Dragon / Long hu jin gang
Страна: Гонконг
Жанр: боевые искусства
Год выпуска: 1973
Продолжительность: 01:35:00
Перевод: Авторский (одноголосый закадровый) Сергей Кузнецов
Cубтитры: нет
Режиссер: Ло Вэй / Lo Wei
В ролях: Джимми Ван Юй, Сэм Хуи, Сильвия Чан, Джеймс Тьен, Ли Кунь, Эр Цюнь, Ли Гоцян, Саймон Чуи, Инь Фа, Хуан Чжимин, Би Бао, Би Шу, Най Цзя
Описание: Татуированный дракон, странствующий рыцарь, получил травму после отбора средств благотворительного фонда от шайки бандитов. Ему удаётся бежать, но затем падает в обморок на берегу реки, его спасает фермер Yeung, который живет с собакой в своей клетке на берегу реки, чтобы зарабатывать на жизнь, поднимая уток. Leung, главарь банды, злится на дракона, когда узнает, что произошло. Когда Leung узнает, что область богата минеральными ресурсами, он устанавливает казино в городе, планирует скупить все земли у местных жителей.Когда выздоровел Дракон, он решает остаться, чтобы помочь людям вернуть то, что они потеряли.
Благодарность: За исходник благодарность выражается шурик 555.
Сэмпл: http://multi-up.com/911126
Качество видео: DVDRip
Формат видео: AVI
Видео: 704x304 (2.32:1), 23.976 fps, XviD build 50 ~2007 kbps avg, 0.39 bit/pixel
Аудио: 48 kHz, AC3 Dolby Digital, 2/0 (L,R) ch, ~192 kbps

MediaInfo

Format : AVI
Format/Info : Audio Video Interleave
File size : 1,46 Гбайт
Duration : 1 ч. 35 м.
Overall bit rate : 2207 Кбит/сек
Writing application : VirtualDubMod 1.5.10.3 | www.virtualdub-fr.org || (build 2550/release)
Writing library : VirtualDubMod build 2550/release
Видео
ID : 0
Format : MPEG-4 Visual
Format profile : Advanced Simple@L5
Format settings, BVOP : 2
Format settings, QPel : Нет
Format settings, GMC : Без точки перехода
Format settings, Matrix : Default (MPEG)
Codec ID : XVID
Codec ID/Hint : XviD
Duration : 1 ч. 35 м.
Bit rate : 2008 Кбит/сек
Width : 704 пикселя
Height : 304 пикселя
Display aspect ratio : 2,35:1
Frame rate : 23,976 кадра/сек
Color space : YUV
Chroma subsampling : 4:2:0
Bit depth : 8 бит
Scan type : Прогрессивная
Compression mode : С потерями
Bits/(Pixel*Frame) : 0.391
Stream size : 1,33 Гбайт (91%)
Writing library : XviD 1.2.1 (UTC 2008-12-04)
Аудио
ID : 1
Format : AC-3
Format/Info : Audio Coding 3
Mode extension : CM (complete main)
Format settings, Endianness : Big
Codec ID : 2000
Duration : 1 ч. 34 м.
Bit rate mode : Постоянный
Bit rate : 192 Кбит/сек
Channel(s) : 2 канала
Channel positions : Front: L R
Sampling rate : 48,0 КГц
Bit depth : 16 бит
Compression mode : С потерями
Stream size : 129 Мбайт (9%)
Alignment : Разделение по промежуткам
Interleave, duration : 42 мс. (1,01 видеокадр)
Interleave, preload duration : 500 мс.

Скриншот c названием фильма

Скриншоты

Скачать

Скачать торрент! Татуированный дракон / The Tattooed Dragon / Long hu jin gang (Ло Вэй / Lo Wei) [1973, Гонконг, боевые искусства, DVDRip] AVO (Сергей Кузнецов)

Как скачивать? · Что такое торрент? · Рейтинг и ограничения

Сайт не распространяет и не хранит электронные версии произведений, а лишь предоставляет доступ к создаваемому пользователями каталогу ссылок на торрент-файлы, которые содержат только списки хеш-сумм

[Профиль] [ЛС]
Показать сообщения:    
Ответить на тему

Текущее время: Сегодня 14:44

Часовой пояс: GMT + 4



Вы не можете начинать темы
Вы не можете отвечать на сообщения
Вы не можете редактировать свои сообщения
Вы не можете удалять свои сообщения
Вы не можете голосовать в опросах
Вы не можете прикреплять файлы к сообщениям
Вы не можете скачивать файлы