Война миров Z / World War Z (Марк Форстер / Marc Forster) [2013, США, ужасы, фантастика, боевик, BDRip 720p] [Theatrical Cut] Dub + Original (Eng) + Subs (Rus, Eng)

Ответить на тему
 
Автор Сообщение

user ®

Стаж: 7 лет 7 месяцев

Сообщений: 20008

Пост Пост: #1 от 08-Окт-2013 22:40

[Цитировать]

Война миров Z / World War Z

-
-Страна: США
Студия: Мальта, Apparatus Productions, GK Films, Hemisphere Media Capital, Latina Pictures, Paramount Pictures, Plan B Entertainment, Skydance Productions
Жанр: ужасы, фантастика, боевик
Год выпуска: 2013
Продолжительность: 01:56:02--Перевод: Профессиональный (дублированный) Blu-ray
Cубтитры: русские (full), английские (forced, full, SDH)
Оригинальная аудиодорожка: английский--Режиссер: Марк Форстер / Marc Forster
В ролях: Брэд Питт, Мирей Инос, Джеймс Бэдж Дэйл, Мэттью Фокс, Даниэлла Кертеш, Луди Бокен, Фана Мокоэна, Дэвид Морc, Элайес Габел, Питер Капальди.--Описание: Сотрудник ООН Джерри Лэйн наперегонки со временем пытается остановить заражение, способное полностью истребить человечество.--imdb | kinopoisk | Сэмпл--Тип релиза: BDRip 720p [World War Z 2013 Theatrical Cut 720p BluRay DTS x264-TRiNiTY]
Контейнер: MKV
Видео: MPEG-4 AVC / 4121 kbps / 1280x534 / 23,976 fps / 2,40:1 / High Profile 4.1
Аудио 1: Russian AC3 / 5.1 / 48 kHz / 640 kbps / 16 bits |Dub, Blu-ray|
Аудио 2: English DTS / 5.1 / 48 kHz / 1510 kbps / 24 bits |original|
Формат субтитров: softsub [SRT]

MediaInfo

Общее
Уникальный идентификатор : 236021890127262054456284218130344496956 (0xB190299E5D40056DB6ED6AFFB7C8CF3C)
Полное имя : G:\HD\Война миров Z.Theatrical Cut.2013.BDRip.(720p).mkv
Формат : Matroska
Версия формата : Version 2
Размер файла : 5,18 Гбайт
Продолжительность : 1 ч. 56 м.
Общий поток : 6397 Кбит/сек
Дата кодирования : UTC 2013-10-07 17:50:40
Программа кодирования : mkvmerge v5.8.0 ('No Sleep / Pillow') built on Sep 2 2012 15:37:04
Библиотека кодирования : libebml v1.2.3 + libmatroska v1.3.0
Attachment : Yes
Видео
Идентификатор : 1
Формат : AVC
Формат/Информация : Advanced Video Codec
Профиль формата : High@L4.1
Параметр CABAC формата : Да
Параметр ReFrames формата : 12 кадров
Идентификатор кодека : V_MPEG4/ISO/AVC
Продолжительность : 1 ч. 56 м.
Битрейт : 4121 Кбит/сек
Ширина : 1280 пикселей
Высота : 534 пикселя
Соотношение сторон : 2,40:1
Режим частоты кадров : Постоянный
Частота кадров : 23,976 кадра/сек
Цветовое пространство : YUV
Субдискретизация насыщенности : 4:2:0
Битовая глубина : 8 бит
Тип развёртки : Прогрессивная
Бит/(Пиксели*Кадры) : 0.251
Размер потока : 3,34 Гбайт (64%)
Заголовок : World War Z 2013 Theatrical Cut 720p BluRay DTS x264-TRiNiTY
Библиотека кодирования : x264 core 138 r2358kMod 9e941d1
Настройки программы : opencl=1 / cabac=1 / ref=12 / deblock=1:-3:-3 / analyse=0x3:0x113 / me=umh / subme=9 / psy=1 / fade_compensate=0.00 / psy_rd=1.10:0.00 / mixed_ref=1 / me_range=16 / chroma_me=1 / trellis=2 / 8x8dct=1 / cqm=0 / deadzone=21,11 / fast_pskip=0 / chroma_qp_offset=-2 / threads=6 / lookahead_threads=1 / sliced_threads=0 / nr=0 / decimate=0 / interlaced=0 / bluray_compat=0 / constrained_intra=0 / bframes=8 / b_pyramid=2 / b_adapt=2 / b_bias=0 / direct=3 / weightb=1 / open_gop=0 / weightp=2 / keyint=250 / keyint_min=23 / scenecut=40 / intra_refresh=0 / rc_lookahead=40 / rc=crf / mbtree=1 / crf=18.0000 / qcomp=0.80 / qpmin=0 / qpmax=69 / qpstep=4 / ip_ratio=1.20 / aq=3:1.10
Язык : English
Default : Да
Forced : Нет
Аудио #1
Идентификатор : 2
Формат : AC-3
Формат/Информация : Audio Coding 3
Расширение режима : CM (complete main)
Параметр Endianness формата : Big
Идентификатор кодека : A_AC3
Продолжительность : 1 ч. 56 м.
Вид битрейта : Постоянный
Битрейт : 640 Кбит/сек
Каналы : 6 каналов
Расположение каналов : Front: L C R, Side: L R, LFE
Частота : 48,0 КГц
Битовая глубина : 16 бит
Метод сжатия : С потерями
Размер потока : 531 Мбайт (10%)
Заголовок : Dub, Blu-ray
Язык : Russian
Default : Да
Forced : Нет
Аудио #2
Идентификатор : 3
Формат : DTS
Формат/Информация : Digital Theater Systems
Режим : 16
Параметр Endianness формата : Big
Идентификатор кодека : A_DTS
Продолжительность : 1 ч. 56 м.
Вид битрейта : Постоянный
Битрейт : 1509 Кбит/сек
Каналы : 6 каналов
Расположение каналов : Front: L C R, Side: L R, LFE
Частота : 48,0 КГц
Битовая глубина : 24 бит
Метод сжатия : С потерями
Размер потока : 1,22 Гбайт (24%)
Язык : English
Default : Нет
Forced : Нет
Текст #1
Идентификатор : 4
Формат : UTF-8
Идентификатор кодека : S_TEXT/UTF8
Идентификатор кодека/Информация : UTF-8 Plain Text
Заголовок : full
Язык : Russian
Default : Нет
Forced : Нет
Текст #2
Идентификатор : 5
Формат : UTF-8
Идентификатор кодека : S_TEXT/UTF8
Идентификатор кодека/Информация : UTF-8 Plain Text
Заголовок : forced
Язык : English
Default : Нет
Forced : Нет
Текст #3
Идентификатор : 6
Формат : UTF-8
Идентификатор кодека : S_TEXT/UTF8
Идентификатор кодека/Информация : UTF-8 Plain Text
Заголовок : full
Язык : English
Default : Нет
Forced : Нет
Текст #4
Идентификатор : 7
Формат : UTF-8
Идентификатор кодека : S_TEXT/UTF8
Идентификатор кодека/Информация : UTF-8 Plain Text
Заголовок : SDH
Язык : English
Default : Нет
Forced : Нет
Меню
00:00:00.000 : :Chapter 01
00:05:05.179 : :Chapter 02
00:13:04.658 : :Chapter 03
00:20:31.188 : :Chapter 04
00:27:02.579 : :Chapter 05
00:32:38.039 : :Chapter 06
00:39:35.331 : :Chapter 07
00:49:06.151 : :Chapter 08
00:55:22.027 : :Chapter 09
01:01:41.239 : :Chapter 10
01:09:18.654 : :Chapter 11
01:17:03.035 : :Chapter 12
01:22:09.841 : :Chapter 13
01:27:51.557 : :Chapter 14
01:36:41.587 : :Chapter 15
01:45:14.099 : :Chapter 16
01:48:46.645 : :Chapter 17

Скриншоты


Дополнительно

Спасибо bluebird-hd за дубляж.
Скачать

Скачать торрент!

Как скачивать? · Что такое торрент? · Рейтинг и ограничения

Сайт не распространяет и не хранит электронные версии произведений, а лишь предоставляет доступ к создаваемому пользователями каталогу ссылок на торрент-файлы, которые содержат только списки хеш-сумм

[Профиль] [ЛС]
Показать сообщения:    
Ответить на тему

Текущее время: Сегодня 14:33

Часовой пояс: GMT + 4



Вы не можете начинать темы
Вы не можете отвечать на сообщения
Вы не можете редактировать свои сообщения
Вы не можете удалять свои сообщения
Вы не можете голосовать в опросах
Вы не можете прикреплять файлы к сообщениям
Вы не можете скачивать файлы