Привет от Тима Бакли / Greetings from Tim Buckley (Дэниел Олгрант / Daniel Algrant) [2013, США, драма, биография, музыка, DVDRip] VO (А. Кедров)

Ответить на тему
 
Автор Сообщение

user ®

Стаж: 7 лет 7 месяцев

Сообщений: 20008

Пост Пост: #1 от 08-Окт-2013 19:30

[Цитировать]

Привет от Тима Бакли / Greetings from Tim Buckley
Страна: США
Жанр: драма, биография, музыка
Год выпуска: 2013
Продолжительность: 01:44:04
Перевод: Одноголосый закадровый А. Кедров
Cубтитры: нет
Режиссер: Дэниел Олгрант / Daniel Algrant
В ролях: Пенн Бэджли, Имоджен Путс, Уильям Сэдлер, Норберт Лео Батц, Алекс Зивак, Фрэнк Вуд, Бет Катехис
Описание: В 1991 году молодой Джефф Бакли репетирует перед своим выступлением на бруклинском концерте, посвящённом памяти его отца, умершего фолк-певца, Тима Бакли. Сталкиваясь с наследием человека, которого он едва знал, Джефф заводит дружбу с загадочной девушкой Элли, выступает на концерте и постепенно понимает мощный потенциал своего собственного музыкального голоса.

Сэмпл: http://multi-up.com/911003
Качество видео: DVDRip
Формат видео: AVI
Видео: Xvid 640x272 23.98fps 798Kbps
Аудио: MPEG Audio Layer 3 48000Hz stereo 128Kbps

MediaInfo

General
Complete name : D:\TORRENTS\Привет от Тима Бакли.avi
Format : AVI
Format/Info : Audio Video Interleave
File size : 696 MiB
Duration : 1h 44mn
Overall bit rate : 936 Kbps
Video
ID : 0
Format : MPEG-4 Visual
Format profile : Advanced Simple@L5
Format settings, BVOP : 2
Format settings, QPel : No
Format settings, GMC : No warppoints
Format settings, Matrix : Default (H.263)
Codec ID : XVID
Codec ID/Hint : XviD
Duration : 1h 44mn
Bit rate : 798 Kbps
Width : 640 pixels
Height : 272 pixels
Display aspect ratio : 2.35:1
Frame rate : 23.976 fps
Color space : YUV
Chroma subsampling : 4:2:0
Bit depth : 8 bits
Scan type : Progressive
Compression mode : Lossy
Bits/(Pixel*Frame) : 0.191
Stream size : 594 MiB (85%)
Writing library : XviD 64
Audio
ID : 1
Format : MPEG Audio
Format version : Version 1
Format profile : Layer 3
Mode : Joint stereo
Mode extension : MS Stereo
Codec ID : 55
Codec ID/Hint : MP3
Duration : 1h 44mn
Source duration : 1h 44mn
Bit rate mode : Constant
Bit rate : 128 Kbps
Channel(s) : 2 channels
Sampling rate : 48.0 KHz
Compression mode : Lossy
Stream size : 95.3 MiB (14%)
Alignment : Aligned on interleaves
Interleave, duration : 42 ms (1.00 video frame)

Скриншот c названием фильма

Скриншоты

Скачать

Скачать торрент!

Как скачивать? · Что такое торрент? · Рейтинг и ограничения

Сайт не распространяет и не хранит электронные версии произведений, а лишь предоставляет доступ к создаваемому пользователями каталогу ссылок на торрент-файлы, которые содержат только списки хеш-сумм

[Профиль] [ЛС]
Показать сообщения:    
Ответить на тему

Текущее время: Сегодня 08:57

Часовой пояс: GMT + 4



Вы не можете начинать темы
Вы не можете отвечать на сообщения
Вы не можете редактировать свои сообщения
Вы не можете удалять свои сообщения
Вы не можете голосовать в опросах
Вы не можете прикреплять файлы к сообщениям
Вы не можете скачивать файлы