Обливион / Забвение / Oblivion (Джозеф Косински / Joseph Kosinski) [2013, США, фантастика, боевик, триллер, приключения, мелодрама, BDRip] Dub + AVO (Юрий Сербин) + Original (Eng) + Sub (Rus, Eng)

Ответить на тему
 
Автор Сообщение

user ®

Стаж: 7 лет 7 месяцев

Сообщений: 20008

Пост Пост: #1 от 08-Окт-2013 19:30

[Цитировать]

Обливион / Забвение / Oblivion
Год выпуска: 2013
Страна: США
Жанр: фантастика, боевик, триллер, приключения, мелодрама
Продолжительность: 02:04:42
Перевод: Профессиональный (полное дублирование) + Оригинальная (английская) дорожка + Авторский (одноголосый закадровый) - Ю. Сербин (отдельно)
Субтитры: русские (forced, 3 варианта полных ), английские - softsub (SRT) - спасибо Vinalord
Режиссер: Джозеф Косински / Joseph Kosinski
В ролях: Том Круз (Jack), Ольга Куриленко (Julia), Андреа Райзборо (Victoria), Морган Фриман (Beech), Николай Костер-Вальдау (Sykes), Мелисса Лео (Sally), Зои Белл (Kara), Эбигейл Лоу (Julia's Child), Изабель Лоу (Julia's Child), Дэвид Мэдисон (Grow Hall Survivor), Джон Л. Армихо (NASA Ground Control, в титрах не указан), Филеена Барис (Survivor, в титрах не указана)--Описание: Земля, пережившая войну с инопланетными захватчиками, опустела; остатки человечества готовятся покинуть непригодную для жизни планету. Главный герой — техник по обслуживанию дронов — находит разбившийся корабль NASA, команда которого погибает у него на глазах. Ему удаётся спасти лишь одну женщину — и вскоре он понимает, что это перевернёт его жизнь.-Рейтинг
kinopoisk.ru: 7.375 (61 794)
imdb.com: 7.0 (182 123)
-Качество:BDRip
Формат: AVI //SAMPLE//
Видео: 720x304 (2.37:1), 23.976 fps, XviD MPEG-4 ~1603 kbps avg, 0.30 bit/pixel
Аудио RUS: 48 kHz, AC3 Dolby Digital, 3/2 (L,C,R,l,r) + LFE ch, ~448 kbps - DUB
Аудио ENG: 48 kHz, AC3 Dolby Digital, 3/2 (L,C,R,l,r) + LFE ch, ~448 kbps - Original (ENG)
Аудио RUS: 48 kHz, AC3 Dolby Digital, 3/2 (L,C,R,l,r) + LFE ch, ~448 kbps - AVO (Сербин, отдельно)

MediaInfo

Общее
Полное имя : F:\Video\AVI\Films\Oblivion.2013.DUAL.BDRip.XviD.AC3.-AllFilms\Oblivion.2013.DUAL.BDRip.XviD.AC3.-AllFilms.avi
Формат : AVI
Формат/Информация : Audio Video Interleave
Профиль формата : OpenDML
Размер файла : 2,18 Гбайт
Продолжительность : 2 ч. 4 м.
Общий поток : 2506 Кбит/сек
Название фильма : Обливион / Oblivion (2013)
Режиссёр : Shevon (Blu-Ray)
Программа кодирования : VirtualDubMod 1.5.10.3 | www.virtualdub-fr.org || (build 2550/release)
Правообладатель : AllFilms
Видео
Идентификатор : 0
Формат : MPEG-4 Visual
Профиль формата : Advanced Simple@L5
Параметр BVOP формата : 1
Параметр QPel формата : Нет
Параметр GMC формата : Без точки перехода
Параметр матрицы формата : Выборочная
Идентификатор кодека : XVID
Идентификатор кодека/Подсказка : XviD
Продолжительность : 2 ч. 4 м.
Битрейт : 1592 Кбит/сек
Ширина : 720 пикселей
Высота : 304 пикселя
Соотношение сторон : 2,35:1
Частота кадров : 23,976 кадра/сек
Цветовое пространство : YUV
Субдискретизация насыщенности : 4:2:0
Битовая глубина : 8 бит
Тип развёртки : Прогрессивная
Метод сжатия : С потерями
Бит/(Пиксели*Кадры) : 0.303
Размер потока : 1,39 Гбайт (64%)
Библиотека кодирования : XviD 65
Аудио #1
Идентификатор : 1
Формат : AC-3
Формат/Информация : Audio Coding 3
Расширение режима : CM (complete main)
Параметр Endianness формата : Big
Идентификатор кодека : 2000
Продолжительность : 2 ч. 4 м.
Вид битрейта : Постоянный
Битрейт : 448 Кбит/сек
Каналы : 6 каналов
Расположение каналов : Front: L C R, Side: L R, LFE
Частота : 48,0 КГц
Битовая глубина : 16 бит
Метод сжатия : С потерями
Размер потока : 400 Мбайт (18%)
Выравнивание : Разделение по промежуткам
Продолжительность промежутка : 42 мс. (1,00 видеокадр)
Время предзагрузки промежутка : 500 мс.
Аудио #2
Идентификатор : 2
Формат : AC-3
Формат/Информация : Audio Coding 3
Расширение режима : CM (complete main)
Параметр Endianness формата : Big
Идентификатор кодека : 2000
Продолжительность : 2 ч. 4 м.
Вид битрейта : Постоянный
Битрейт : 448 Кбит/сек
Каналы : 6 каналов
Расположение каналов : Front: L C R, Side: L R, LFE
Частота : 48,0 КГц
Битовая глубина : 16 бит
Метод сжатия : С потерями
Размер потока : 400 Мбайт (18%)
Выравнивание : Разделение по промежуткам
Продолжительность промежутка : 42 мс. (1,00 видеокадр)
Время предзагрузки промежутка : 500 мс.

Скриншоты

-
Скачать

Скачать торрент!

Как скачивать? · Что такое торрент? · Рейтинг и ограничения

Сайт не распространяет и не хранит электронные версии произведений, а лишь предоставляет доступ к создаваемому пользователями каталогу ссылок на торрент-файлы, которые содержат только списки хеш-сумм

[Профиль] [ЛС]
Показать сообщения:    
Ответить на тему

Текущее время: Сегодня 20:12

Часовой пояс: GMT + 4



Вы не можете начинать темы
Вы не можете отвечать на сообщения
Вы не можете редактировать свои сообщения
Вы не можете удалять свои сообщения
Вы не можете голосовать в опросах
Вы не можете прикреплять файлы к сообщениям
Вы не можете скачивать файлы