Источники жизни / Quellen des Lebens (Оскар Рёлер / Oskar Roehler) [2013, Германия, Драма, мелодрама, DVDRip] Sub Rus + Original Ger

Ответить на тему
 
Автор Сообщение

user ®

Стаж: 7 лет 7 месяцев

Сообщений: 20008

Пост Пост: #1 от 08-Окт-2013 11:40

[Цитировать]

Источники жизни / Quellen des Lebens
Страна: Германия
Жанр: Драма, мелодрама
Год выпуска: 2013
Продолжительность: 02:46:42
Перевод: Субтитры
Cубтитры: русские
Оригинальная аудиодорожка: немецкий
Режиссер: Оскар Рёлер / Oskar Roehler
В ролях: Мерет Беккер
Мориц Бляйбтрой
Лавиния Уилсон
Лиза Смит
Леонард Шайхер
Костя Улльман
Юрген Фогель
Соня Кирхбергер
Маргарита Бройх
Описание: Главный герой этого фильма Роберт с юмором рассказывает нам о жизни трех поколений своей семьи. Его история начинается в 50-х годах прошлого века, когда его дед Эрих вернулся из плена, хотя его уже никто не надеялся увидеть живым. Позже Эрих открыл завод по производству садовых гномов. А вот его сын, Клаус, стал не промышленником, а литератором как и его супруга. Родившегося Роберта, они почти сразу же отправили на воспитанию к деду, так как сын не вписывался в их богемную жизнь. Так началась долгая одиссея Роберта по всей стране.
Доп. информация: http://www.imdb.com/title/tt2112136/
http://www.kinopoisk.ru/film/648451/
Сэмпл: http://multi-up.com/910910
Качество видео: DVDRip
Формат видео: AVI
Видео: 672x352 (1.91:1) 25 fps XviD build 50 881 kbps avg 0.15 bit/pixel 1057.23 Mb
Аудио: 48 kHz AC3 Dolby Digital 3/2 (L,C,R,l,r) + LFE ch 448 kbps 2:46:40.383 / 534.08 Mb
Формат субтитров: softsub (SRT)
Доп. информация о субтитрах: перевод kon2011
110
00:14:33,360 --> 00:14:36,080
Мы всегда думали,
что вы нами гордитесь.
111
00:14:38,040 --> 00:14:40,510
А вы про нас ничего не думали.
112
00:14:41,880 --> 00:14:44,080
Вы просто нас забыли.
113
00:15:19,520 --> 00:15:21,480
Доброе утро, Эрих.
114
00:15:28,720 --> 00:15:31,600
- Что ты хочешь?
- Поговорить с тобой.
115
00:15:33,680 --> 00:15:36,120
Нам не о чем говорить. Убирайся.
116
00:15:36,880 --> 00:15:38,760
Я думаю, есть, Эрих.
117
00:15:45,040 --> 00:15:47,800
Убирайся. Собирай свои вещи.
118
00:15:48,080 --> 00:15:50,280
Чтобы вечером тебя здесь уже не было.
119
00:16:08,120 --> 00:16:11,560
- Ты готов?
- Через пять минут.
120
00:16:30,080 --> 00:16:33,440
Мой сын Клаус
будет у вас старшим.
121
00:16:33,720 --> 00:16:37,080
Если будете стараться,
будете неплохо зарабатывать.
122
00:16:37,360 --> 00:16:39,350
Кто-нибудь умеет лакировать?
123
00:16:40,920 --> 00:16:43,200
Кто-то работал лакировщицей?
124
00:16:44,040 --> 00:16:45,440
- Как зовут?
- Фрау Раммер.
125
00:16:45,720 --> 00:16:50,000
Хорошо. Покажете еще четырем
женщинам, как это делается.
126
00:16:50,280 --> 00:16:52,640
- Вы будете ими руководить.
- Хорошо, господин директор.
127
00:16:52,840 --> 00:16:57,040
Остальные идите в цех,
приводить здание в порядок.
128
00:16:57,320 --> 00:16:59,310
Да, не будешь стараться - не получишь награду.
129
00:17:00,400 --> 00:17:01,960
За работу.
130
00:17:58,800 --> 00:18:00,240
Мария!
131
00:18:01,200 --> 00:18:02,640
Мария!
132
00:18:26,200 --> 00:18:29,240
Я уйду от него. Я уйду от него.

MediaInfo

Общее
Полное имя : D:\Quellen.des.Lebens.(2013) rus\Quellen.des.Lebens.(2013) rus.avi
Формат : AVI
Формат/Информация : Audio Video Interleave
Размер файла : 1,56 Гбайт
Продолжительность : 2 ч. 46 м.
Общий поток : 1339 Кбит/сек
Программа кодирования : VirtualDubMod 1.5.10.2 (build 2540/release)
Библиотека кодирования : VirtualDubMod build 2540/release
Видео
Идентификатор : 0
Формат : MPEG-4 Visual
Профиль формата : Advanced Simple@L5
Параметр BVOP формата : 2
Параметр QPel формата : Нет
Параметр GMC формата : Без точки перехода
Параметр матрицы формата : Default (H.263)
Идентификатор кодека : XVID
Идентификатор кодека/Подсказка : XviD
Продолжительность : 2 ч. 46 м.
Битрейт : 882 Кбит/сек
Ширина : 672 пикселя
Высота : 352 пикселя
Соотношение сторон : 1,909
Частота кадров : 25,000 кадров/сек
Цветовое пространство : YUV
Субдискретизация насыщенности : 4:2:0
Битовая глубина : 8 бит
Тип развёртки : Прогрессивная
Метод сжатия : С потерями
Бит/(Пиксели*Кадры) : 0.149
Размер потока : 1,03 Гбайт (66%)
Библиотека кодирования : XviD 1.2.1 (UTC 2008-12-04)
Аудио
Идентификатор : 1
Формат : AC-3
Формат/Информация : Audio Coding 3
Расширение режима : CM (complete main)
Параметр Endianness формата : Big
Идентификатор кодека : 2000
Продолжительность : 2 ч. 46 м.
Вид битрейта : Постоянный
Битрейт : 448 Кбит/сек
Каналы : 6 каналов
Расположение каналов : Front: L C R, Side: L R, LFE
Частота : 48,0 КГц
Битовая глубина : 16 бит
Метод сжатия : С потерями
Размер потока : 534 Мбайт (33%)
Выравнивание : Разделение по промежуткам
Продолжительность промежутка : 40 мс. (1,00 видеокадр)
Время предзагрузки промежутка : 500 мс.

Скриншот c названием фильма

Скриншоты


Скачать

Скачать торрент!

Как скачивать? · Что такое торрент? · Рейтинг и ограничения

Сайт не распространяет и не хранит электронные версии произведений, а лишь предоставляет доступ к создаваемому пользователями каталогу ссылок на торрент-файлы, которые содержат только списки хеш-сумм

[Профиль] [ЛС]
Показать сообщения:    
Ответить на тему

Текущее время: Сегодня 15:51

Часовой пояс: GMT + 4



Вы не можете начинать темы
Вы не можете отвечать на сообщения
Вы не можете редактировать свои сообщения
Вы не можете удалять свои сообщения
Вы не можете голосовать в опросах
Вы не можете прикреплять файлы к сообщениям
Вы не можете скачивать файлы