Приключения Виннету. Легенда сокровища Серебрянного озера / WinneToons – Die Legende vom Schatz im Silbersee (Герт Людвиг / Gert Ludewig) [2009, семейный, приключения, вестерн, DVDRip] AVO (Живов) + DEU

Ответить на тему
 
Автор Сообщение

user ®

Стаж: 13 лет

Сообщений: 15041

Пост Пост: #1 от 08-Окт-2013 08:30

[Цитировать]

Приключения Виннету. Легенда сокровища Серебрянного озера / WinneToons – Die Legende vom Schatz im Silbersee- Страна: Филиппины, Бельгия, Германия
Жанр: семейный, приключения, вестерн
Продолжительность: 01:17:26
Год выпуска: 2009
Перевод: Авторский (одноголосый закадровый) Юрий Живов
Русские субтитры: нет-Режиссёры: Герт Людвиг / Gert Ludewig
Роли озвучивали: Кристиан Трамиц, Косма Шива Хаген, Томас Фритш, Саша Дрэгер, Янник Шуманн, Экарт Дюкс, Йорг Гилльнер, Михаэль Гримм, Урсула Зиг, Генри Кениг...- |-Описание: Аризона, 1869 год. Мальчик-сирота Бобби из Нью-Йорка отправляется на Дикий Запад, чтобы добыть клад. У него есть карта сокровищ, за которыми также охотятся злодей Бринкли и его банда. Они похищают мальчика и маленькую сестренку Виннету Ншо-чи. Вождь апачей и его кровный брат пускаются вслед по пятам банды Бринкли. Смогут ли они оба успеть добраться до Серебрянного озера?-Доп. информация:
- Перевод Юрия Живова осуществлен в феврале 2013 г. в рамках форума WIDESCREEN "Кино в Авторском переводе" по заказу Multmir, 48ronin, SilverBeast, Linnan, Dr. Destructo, Nick, xfiles, Kens, Кирыч, dvdss, Владимир Ленин, ZeRoNe, scoopy.
- Исходный DVD R2 диск любезно предоставлен Multmir'ом.
-Семпл: скачать-Качество: DVDRip |
Формат: AVI
Видео: 704x384 (1.83:1), 25 fps, XviD MPEG-4 ~1784 kbps avg, 0.26 bit/pixel
Аудио 1: Русский, 48.0 KHz, AC3, 6 ch, 448 Kbps | Юрий Живов
Аудио 2: Deutsch, 48.0 KHz, AC3, 6 ch, 448 Kbps | Original
Субтитры: отсутствуют

Подробные технические данные

GeneralComplete name : WinneToons-Die.Legende.vom.Schatz.im.Silbersee.2009.DVDRip.XviD.AC3-.aviFormat : AVIFormat/Info : Audio Video InterleaveFile size : 1.46 GiBDuration : 1h 17mnOverall bit rate : 2 695 KbpsWriting application : VirtualDubMod 1.5.10.2 (build 2542/release)Writing library : VirtualDubMod build 2542/release
VideoID : 0Format : MPEG-4 VisualFormat profile : Advanced Simple@L5Format settings, BVOP : 2Format settings, QPel : NoFormat settings, GMC : No warppointsFormat settings, Matrix : CustomCodec ID : XVIDCodec ID/Hint : XviDDuration : 1h 17mnBit rate : 1 785 KbpsWidth : 704 pixelsHeight : 384 pixelsDisplay aspect ratio : 1.85:1Frame rate : 25.000 fpsColor space : YUVChroma subsampling : 4:2:0Bit depth : 8 bitsScan type : ProgressiveCompression mode : LossyBits/(Pixel*Frame) : 0.264Stream size : 989 MiB (66%)Writing library : XviD 65
Audio #1ID : 1Format : AC-3Format/Info : Audio Coding 3Mode extension : CM (complete main)Format settings, Endianness : BigCodec ID : 2000Duration : 1h 17mnBit rate mode : ConstantBit rate : 448 KbpsChannel(s) : 6 channelsChannel positions : Front: L C R, Side: L R, LFESampling rate : 48.0 KHzBit depth : 16 bitsCompression mode : LossyStream size : 248 MiB (17%)Alignment : Split accross interleavesInterleave, duration : 40 ms (1.00 video frame)Interleave, preload duration : 500 ms
Audio #2ID : 2Format : AC-3Format/Info : Audio Coding 3Mode extension : CM (complete main)Format settings, Endianness : BigCodec ID : 2000Duration : 1h 17mnBit rate mode : ConstantBit rate : 448 KbpsChannel(s) : 6 channelsChannel positions : Front: L C R, Side: L R, LFESampling rate : 48.0 KHzBit depth : 16 bitsCompression mode : LossyStream size : 248 MiB (17%)Alignment : Split accross interleavesInterleave, duration : 40 ms (1.00 video frame)Interleave, preload duration : 500 ms

Скриншоты

Скачать

Скачать торрент! Приключения Виннету. Легенда сокровища Серебрянного озера / WinneToons – Die Legende vom Schatz im Silbersee (Герт Людвиг / Gert Ludewig) [2009, семейный, приключения, вестерн, DVDRip] AVO (Живов) + DEU

Как скачивать? · Что такое торрент? · Рейтинг и ограничения

Сайт не распространяет и не хранит электронные версии произведений, а лишь предоставляет доступ к создаваемому пользователями каталогу ссылок на торрент-файлы, которые содержат только списки хеш-сумм

[Профиль] [ЛС]
Показать сообщения:    
Ответить на тему

Текущее время: Сегодня 11:40

Часовой пояс: GMT + 4



Вы не можете начинать темы
Вы не можете отвечать на сообщения
Вы не можете редактировать свои сообщения
Вы не можете удалять свои сообщения
Вы не можете голосовать в опросах
Вы не можете прикреплять файлы к сообщениям
Вы не можете скачивать файлы