Камилла Клодель, 1915 / Camille Claudel 1915 (Бруно Дюмон / Bruno Dumont) [2013, Франция, драма, биография, HDRip] MVO

Ответить на тему
 
Автор Сообщение

user ®

Стаж: 7 лет 7 месяцев

Сообщений: 20008

Пост Пост: #1 от 08-Окт-2013 08:30

[Цитировать]

Камилла Клодель, 1915 / Camille Claudel 1915
Страна: Франция
Жанр: драма, биография
Год выпуска: 2013
Продолжительность: 01:34:52
Перевод: Профессиональный (многоголосый закадровый) лицензия
Cубтитры: нет
Режиссер: Бруно Дюмон / Bruno Dumont
В ролях: Жюльет Бинош, Жан-Люк Винсент, Эммануэль Кауффман, Мэрион Келлер,Роберт Лерой,Армель Леруа-Роллан
Описание: История о французском скульпторе Камилле Клодель, чья одержимость мыслью, что её завистники — так же, как и её бывший любовник Огюст Роден, — преследуют её, побудило семью Камиллы отправить её в психиатрическую клинику на юге Франции. В фильме показаны бесконечные бдения героини в надежде найти понимание и признание её таланта, а также ожидание визита любимого брата, писателя Поля Клоделя...
Берлинский кинофестиваль, 2013 год
Номинации: Золотой Медведь


Сэмпл: http://multi-up.com/910800
Качество видео: HDRip
Формат видео: AVI
Видео: XviD, 720x304, 1803 kb/s
Аудио: AC3, 256 kb/s (6 ch)

MediaInfo

Общее
Полное имя : D:\Kamilla.Klodel.1915_2013.HDRip.avi
Формат : AVI
Формат/Информация : Audio Video Interleave
Размер файла : 1,37 Гбайт
Продолжительность : 1 ч. 34 м.
Общий поток : 2069 Кбит/сек
Программа кодирования : VirtualDubMod 1.5.10.3 | www.virtualdub-fr.org || (build 2550/release)
Библиотека кодирования : VirtualDubMod build 2550/release
Видео
Идентификатор : 0
Формат : MPEG-4 Visual
Профиль формата : Advanced Simple@L5
Параметр BVOP формата : 1
Параметр QPel формата : Нет
Параметр GMC формата : Без точки перехода
Параметр матрицы формата : Выборочная
Идентификатор кодека : XVID
Идентификатор кодека/Подсказка : XviD
Продолжительность : 1 ч. 34 м.
Битрейт : 1803 Кбит/сек
Ширина : 720 пикселей
Высота : 304 пикселя
Соотношение сторон : 2,35:1
Частота кадров : 23,976 кадра/сек
Цветовое пространство : YUV
Субдискретизация насыщенности : 4:2:0
Битовая глубина : 8 бит
Тип развёртки : Прогрессивная
Метод сжатия : С потерями
Бит/(Пиксели*Кадры) : 0.344
Размер потока : 1,20 Гбайт (87%)
Библиотека кодирования : XviD 1.2.1 (UTC 2008-12-04)
Аудио
Идентификатор : 1
Формат : AC-3
Формат/Информация : Audio Coding 3
Расширение режима : CM (complete main)
Параметр Endianness формата : Big
Идентификатор кодека : 2000
Продолжительность : 1 ч. 34 м.
Вид битрейта : Постоянный
Битрейт : 256 Кбит/сек
Каналы : 6 каналов
Расположение каналов : Front: L C R, Side: L R, LFE
Частота : 48,0 КГц
Битовая глубина : 16 бит
Метод сжатия : С потерями
Размер потока : 174 Мбайт (12%)
Выравнивание : Разделение по промежуткам
Продолжительность промежутка : 42 мс. (1,00 видеокадр)
Время предзагрузки промежутка : 500 мс.

Скриншот c названием фильма

Скриншоты

Скачать

Скачать торрент!

Как скачивать? · Что такое торрент? · Рейтинг и ограничения

Сайт не распространяет и не хранит электронные версии произведений, а лишь предоставляет доступ к создаваемому пользователями каталогу ссылок на торрент-файлы, которые содержат только списки хеш-сумм

[Профиль] [ЛС]
Показать сообщения:    
Ответить на тему

Текущее время: Сегодня 14:08

Часовой пояс: GMT + 4



Вы не можете начинать темы
Вы не можете отвечать на сообщения
Вы не можете редактировать свои сообщения
Вы не можете удалять свои сообщения
Вы не можете голосовать в опросах
Вы не можете прикреплять файлы к сообщениям
Вы не можете скачивать файлы