Иллюзия обмана / Now You See Me (Луи Летерье / Lui Leter\'e) [2013, Франция, США, триллер, криминал, детектив, HDRip] Dub

Ответить на тему
 
Автор Сообщение

user ®

Стаж: 7 лет 7 месяцев

Сообщений: 20008

Пост Пост: #1 от 08-Окт-2013 08:30

[Цитировать]

Иллюзия обмана / Now You See Me- Страна: Франция, США
Жанр: триллер, криминал, детектив
Год выпуска: 2013
Продолжительность: 01:55:21-Перевод: Профессиональный (дублированный)
Cубтитры: нет
Режиссер: Луи Летерье
В ролях: Джесси Айзенберг, Марк Руффало, Вуди Харрельсон, Мелани Лоран, Айла Фишер, Дэйв Франко, Майкл Кейн, Морган Фриман, Майкл Келли, Коммон
Описание: Команда лучших иллюзионистов мира проворачивает дерзкие ограбления прямо во время своих шоу, играя в кошки-мышки с агентами ФБР.-
-Сэмпл: http://multi-up.com/910891
Качество видео: HDRip источник BDRip 1080p
Формат видео: AVI
Видео: DivX, 2097 Kb/s, 720x304, 23.976 fps
Аудио: AC3, 448 Kb/s, 6 ch, 48.0 KHz, 16bits

MediaInfo

General
Complete name : G:\Illuzja.obmana.2013.D.HDRip.avi
Format : AVI
Format/Info : Audio Video Interleave
Format profile : OpenDML
File size : 2.06 GiB
Duration : 1h 55mn
Overall bit rate : 2 552 Kbps
Movie name : I
Writing application : V
Copyright : U
Video
ID : 0
Format : MPEG-4 Visual
Codec ID : DX50
Codec ID/Hint : DivX 5
Duration : 1h 55mn
Source duration : 1h 15mn
Bit rate : 1 434 Kbps
Width : 720 pixels
Height : 304 pixels
Display aspect ratio : 2.35:1
Frame rate : 23.976 fps
Color space : YUV
Chroma subsampling : 4:2:0
Compression mode : Lossy
Bits/(Pixel*Frame) : 0.273
Stream size : 1.16 GiB (56%)
Audio
ID : 1
Format : AC-3
Format/Info : Audio Coding 3
Mode extension : CM (complete main)
Format settings, Endianness : Big
Codec ID : 2000
Duration : 1h 55mn
Bit rate mode : Constant
Bit rate : 448 Kbps
Channel(s) : 6 channels
Channel positions : Front: L C R, Side: L R, LFE
Sampling rate : 48.0 KHz
Bit depth : 16 bits
Compression mode : Lossy
Stream size : 370 MiB (18%)
Alignment : Split accross interleaves
Interleave, duration : 27 ms (0.65 video frame)
Interleave, preload duration : 88087 ms

Скриншот c названием фильма

Скриншоты

Скачать

Скачать торрент!

Как скачивать? · Что такое торрент? · Рейтинг и ограничения

Сайт не распространяет и не хранит электронные версии произведений, а лишь предоставляет доступ к создаваемому пользователями каталогу ссылок на торрент-файлы, которые содержат только списки хеш-сумм

[Профиль] [ЛС]
Показать сообщения:    
Ответить на тему

Текущее время: Сегодня 15:54

Часовой пояс: GMT + 4



Вы не можете начинать темы
Вы не можете отвечать на сообщения
Вы не можете редактировать свои сообщения
Вы не можете удалять свои сообщения
Вы не можете голосовать в опросах
Вы не можете прикреплять файлы к сообщениям
Вы не можете скачивать файлы