В тихом краю птицы поют / Noi binh minh chim hot (Вьет Лин / Viet Linh) [1988, Вьетнам, Романтическая драма, VHSRip] DVO

Ответить на тему
 
Автор Сообщение

user ®

Стаж: 11 лет

Сообщений: 15151

Пост Пост: #1 от 08-Окт-2013 00:50

[Цитировать]

В тихом краю птицы поют / Noi binh minh chim hot
Страна: Вьетнам
Жанр: Романтическая драма
Год выпуска: 1988
Продолжительность: 01:12:04
Перевод: Профессиональный (двухголосый закадровый). Советская озвучка! Текст читали Любовь Калинина и Виктор Петров.
Cубтитры: нет
Оригинальная аудиодорожка: нет

Режиссер: Вьет Лин / Viet Linh
В ролях: Minh Trang - Минх Трэнг, Ly Tuyet -Лай Тайт, Anh Tuyet - Ан Туэт, Phuong Linh - Фуйёнг Лин, Hoang Son - Хуан Сун, Ho Kieng - Хо Кьенг, Ba Nam, Sa Dec - Ба Нам Са Дек, Le Cung Bac - Ли Чунг Бак, Be Anh Thu - Би Эн Тю, Cam Van - Кам Вэн, Bach Lan - Бач Лэн, Nguyen Day - Нгьюн Дэй, Le Chank - Ли Чанг
Описание: Война США во Вьетнаме в 1968 году. Юноша, влюблённый в молодую учительницу, после окончания учёбы собирается идти воевать с захватчиками. Его провожает девушка, а он вспоминает другую… Искренняя первая любовь, трепетные чувства окунут вас с головой в сюжет этого вьетнамского романтического фильма о нелёгкой судьбе вьетнамского народа.

Доп. информация: По просьбе президента США и посольства США с 1986г - показ фильмов Вьетнама в СССР - "приостановлен", а с 1992-1993г. - запрещён.

Благодарность за рип: vova68; за постер: Verba96

Качество видео: VHSRip
Формат видео: AVI
Видео: 672x496 (1.35:1), 25 fps, DivX Codec 5.x or 6.x ~2151 kbps avg, 0.26 bit/pixel
Аудио: 48 kHz, AC3 Dolby Digital, 2/0 (L,R) ch, ~256.00 kbps avg

MediaInfo

Complete name : В тихом краю птицы поют (1988) VHSRip.fenixclub.avi
Format : AVI
Format/Info : Audio Video Interleave
File size : 1.22 GiB
Duration : 1h 12mn
Overall bit rate : 2 417 Kbps
Writing application : VirtualDubModRus 1.5.10.2 (build 2540/release)
Writing library : VirtualDubMod build 2540/release
Video
ID : 0
Format : MPEG-4 Visual
Format settings, BVOP : Yes
Format settings, QPel : No
Format settings, GMC : No warppoints
Format settings, Matrix : Default (H.263)
Muxing mode : Packed bitstream
Codec ID : DX50
Codec ID/Hint : DivX 5
Duration : 1h 12mn
Bit rate : 2 152 Kbps
Width : 672 pixels
Height : 496 pixels
Display aspect ratio : 4:3
Frame rate : 25.000 fps
Resolution : 8 bits
Colorimetry : 4:2:0
Scan type : Progressive
Bits/(Pixel*Frame) : 0.258
Stream size : 1.08 GiB (89%)
Writing library : DivX 6.8.5 (UTC 2009-08-20)
Audio
ID : 1
Format : AC-3
Format/Info : Audio Coding 3
Codec ID : 2000
Duration : 1h 12mn
Bit rate mode : Constant
Bit rate : 256 Kbps
Channel(s) : 2 channels
Channel positions : L R
Sampling rate : 48.0 KHz
Stream size : 132 MiB (11%)
Alignment : Split accross interleaves
Interleave, duration : 40 ms (1.00 video frame)
Interleave, preload duration : 500 ms
- -

Скачать

Скачать торрент! В тихом краю птицы поют / Noi binh minh chim hot (Вьет Лин / Viet Linh) [1988, Вьетнам, Романтическая драма, VHSRip] DVO

Как скачивать? · Что такое торрент? · Рейтинг и ограничения

Сайт не распространяет и не хранит электронные версии произведений, а лишь предоставляет доступ к создаваемому пользователями каталогу ссылок на торрент-файлы, которые содержат только списки хеш-сумм

[Профиль] [ЛС]
Показать сообщения:    
Ответить на тему

Текущее время: Сегодня 09:48

Часовой пояс: GMT + 4



Вы не можете начинать темы
Вы не можете отвечать на сообщения
Вы не можете редактировать свои сообщения
Вы не можете удалять свои сообщения
Вы не можете голосовать в опросах
Вы не можете прикреплять файлы к сообщениям
Вы не можете скачивать файлы