Забытое / The Forgotten (Джозеф Рубин / Joseph Ruben) [2004, США, фантастика, триллер, драма, детектив, WEB-DL 720p] [Театральная версия / Theatrical Cut] Dub + DVO (Tycoon) + Original + Sub (Rus, Eng)

Ответить на тему
 
Автор Сообщение

user ®

Стаж: 7 лет 7 месяцев

Сообщений: 20008

Пост Пост: #1 от 08-Окт-2013 00:50

[Цитировать]

Забытое / The Forgotten
[Театральная версия / Theatrical Cut]

«Того, кого ты помнишь, никогда не было...»
- Год выпуска: 2004
Страна: США
Жанр: Фантастика, триллер, драма, детектив-Продолжительность: 1:31:02
Перевод №1: Профессиональный (полное дублирование)
Перевод №2: Профессиональный (двухголосый закадровый) [Tycoon-Studio]
Оригинальная аудиодорожка: Английская
Cубтитры: Русские, Английские {*.srt}-Режиссер: Джозеф Рубин / Joseph Ruben
В ролях: Джулианна Мур, Доминик Уэст, Гэри Синиз, Элфри Вудард, Лайнас Роуч, Энтони Эдвардс, Ли Тергесен, Кристофер Ковалевски, Мэттью Плезевич, Джессика Хехт и др.-Описание: Телли Паретта ищет своего пропавшего в авиакатастрофе восьмилетнего сына. Пытаясь справиться со стрессом, она обращается к психоаналитику. Однако вместо поддержки и утешения, тот пытается убедить пациентку в том, что сын — всего лишь плод ее воображения и расстройства мозга.
Телли удается найти человека с подобным расстройством психики, который потерял дочь. Вместе им предстоит доказать, что их воспоминания не являются плодом больной фантазии. Но чем дальше заходят их поиски, тем больше фактов указывают на то, что их дети были похищены кем-то или чем-то при весьма странных обстоятельствах…-Бюджет: $42 000 000
Сборы в США: $67 133 509 | Сборы в Мире: + $50 442 127 = $117 575 636 | Сборы в России: $1 125 000
Рейтинг MPAA: PG-13 (Детям до 13 лет просмотр не желателен!)
-Качество видео: WEB-DL 720p [The.Forgotten.2004.720p.WEB-DL.DD5.1.H.264-ViGi]
Формат видео: MKV
Видео: 1280x718 (16:9), 23.976 fps, H.264 ~3941 kbps avg, 0.179 bit/pixel
Аудио#1: 48 kHz, AC3, 3/2 (L,C,R,l,r) + LFE ch, ~448 kbps [Dub]
Аудио#2: 48 kHz, AC3, 3/2 (L,C,R,l,r) + LFE ch, ~448 kbps [DVO]
Аудио#3: 48 kHz, AC3, 3/2 (L,C,R,l,r) + LFE ch, ~384 kbps [Original]

MediaInfo

Код:
General
Unique ID : 244396666355294628206979226777187050779 (0xB7DD15F743BA8A46B428C706C1C0E51B)
Complete name : C:\The.Forgotten.2004.720p.WEB-DL.H264-ViGi [PublicHD]\The_Forgotten.2004.Theatrical.WEB-DL720p.mkv
Format : Matroska
Format version : Version 2
File size : 3.39 GiB
Duration : 1h 31mn
Overall bit rate : 5 326 Kbps
Movie name : The Forgotten (2004) [Theatrical Cut] - WEB-DL 720p
Encoded date : UTC 2013-10-07 18:32:47
Writing application : mkvmerge v3.4.0 ('Rapunzel') сборка от May 15 2010 09:38:20
Writing library : libebml v0.8.0 + libmatroska v0.9.0
Video
ID : 1
Format : AVC
Format/Info : Advanced Video Codec
Format profile : High@L3.1
Format settings, CABAC : No
Format settings, ReFrames : 2 frames
Format settings, GOP : N=1
Codec ID : V_MPEG4/ISO/AVC
Duration : 1h 31mn
Bit rate : 3 940 Kbps
Width : 1 280 pixels
Height : 718 pixels
Display aspect ratio : 16:9
Frame rate mode : Constant
Frame rate : 23.976 fps
Color space : YUV
Chroma subsampling : 4:2:0
Bit depth : 8 bits
Scan type : Progressive
Bits/(Pixel*Frame) : 0.179
Stream size : 2.51 GiB (74%)
Title : The.Forgotten.2004.720p.WEB-DL.DD5.1.H.264-ViGi
Language : English
Default : Yes
Forced : Yes
Color primaries : BT.709
Transfer characteristics : BT.709
Matrix coefficients : BT.709
Audio #1
ID : 2
Format : AC-3
Format/Info : Audio Coding 3
Mode extension : CM (complete main)
Format settings, Endianness : Big
Codec ID : A_AC3
Duration : 1h 31mn
Bit rate mode : Constant
Bit rate : 448 Kbps
Channel count : 6 channels
Channel positions : Front: L C R, Side: L R, LFE
Sampling rate : 48.0 KHz
Bit depth : 16 bits
Compression mode : Lossy
Stream size : 292 MiB (8%)
Title : Dub R5
Language : Russian
Default : Yes
Forced : No
Audio #2
ID : 3
Format : AC-3
Format/Info : Audio Coding 3
Mode extension : CM (complete main)
Format settings, Endianness : Big
Codec ID : A_AC3
Duration : 1h 31mn
Bit rate mode : Constant
Bit rate : 448 Kbps
Channel count : 6 channels
Channel positions : Front: L C R, Side: L R, LFE
Sampling rate : 48.0 KHz
Bit depth : 16 bits
Compression mode : Lossy
Stream size : 292 MiB (8%)
Title : DVO (Tycoon)
Language : Russian
Default : No
Forced : No
Audio #3
ID : 4
Format : AC-3
Format/Info : Audio Coding 3
Mode extension : CM (complete main)
Format settings, Endianness : Big
Codec ID : A_AC3
Duration : 1h 31mn
Bit rate mode : Constant
Bit rate : 384 Kbps
Channel count : 6 channels
Channel positions : Front: L C R, Side: L R, LFE
Sampling rate : 48.0 KHz
Bit depth : 16 bits
Compression mode : Lossy
Stream size : 250 MiB (7%)
Title : Original
Language : English
Default : No
Forced : No
Text #1
ID : 5
Format : UTF-8
Codec ID : S_TEXT/UTF8
Codec ID/Info : UTF-8 Plain Text
Language : Russian
Default : No
Forced : No
Text #2
ID : 6
Format : UTF-8
Codec ID : S_TEXT/UTF8
Codec ID/Info : UTF-8 Plain Text
Language : English
Default : No
Forced : No
Menu
00:00:00.000 : en:1
00:05:28.000 : en:2
00:10:13.000 : en:3
00:14:44.000 : en:4
00:21:29.000 : en:5
00:25:45.000 : en:6
00:30:18.000 : en:7
00:34:35.000 : en:8
00:38:19.000 : en:9
00:44:51.000 : en:10
00:52:38.000 : en:11
00:57:08.000 : en:12
01:01:26.000 : en:13
01:07:56.000 : en:14
01:16:52.000 : en:15
01:23:11.000 : en:16

Скриншоты



-
Скачать

Скачать торрент!

Как скачивать? · Что такое торрент? · Рейтинг и ограничения

Сайт не распространяет и не хранит электронные версии произведений, а лишь предоставляет доступ к создаваемому пользователями каталогу ссылок на торрент-файлы, которые содержат только списки хеш-сумм

[Профиль] [ЛС]
Показать сообщения:    
Ответить на тему

Текущее время: Сегодня 13:36

Часовой пояс: GMT + 4



Вы не можете начинать темы
Вы не можете отвечать на сообщения
Вы не можете редактировать свои сообщения
Вы не можете удалять свои сообщения
Вы не можете голосовать в опросах
Вы не можете прикреплять файлы к сообщениям
Вы не можете скачивать файлы