Признайте меня виновным / Find Me Guilty (Сидни Люмет / Sidney Lumet) [2006, США, Германия, драма, комедия, криминал, BDRemux 1080p] MVO (CP-Digital) + DVO + VO (Дмитрий Есарев) + Sub Rus + Original Eng

Ответить на тему
 
Автор Сообщение

user ®

Стаж: 7 лет 7 месяцев

Сообщений: 20008

Пост Пост: #1 от 08-Окт-2013 00:50

[Цитировать]

-Признайте меня виновным / Find Me Guilty-Страна: США, Германия
Жанр: драма, комедия, криминал
Год выпуска: 2006
Продолжительность: 02:04:40
Перевод: Профессиональный (многоголосый закадровый) CP-Digital
Перевод 2: Профессиональный (двухголосый закадровый)
Перевод 3: Одноголосый закадровый Дмитрий Есарев
Cубтитры: Russian-SRT (CP-Digital), Russian-PGS (CP-Digital), English-SRT (SDH), English-PGS (SDH)
Оригинальная аудиодорожка: английский-Режиссер: Сидни Люмет / Sidney Lumet
В ролях: Вин Дизель, Алекс Рокко, Фрэнк Пьетранголаре, Ричард ДеДоменико, Джерри Грэйсон, Тони Рэй Росси, Винни Велла, Пол Боргез, Фрэнк Адонис, Николас А. Пуччио-Описание: Фильм снят на основе реальных событий. Когда полиции удается арестовать 20 членов мафиозного клана Луккези, Джеки ДиНорцио по прозвищу Толстяк Ди, уже отбывающий 30-летний тюремный срок, получает соблазнительное предложение: Джеки выйдет на волю досрочно, если даст показания против своих корешей. Но Толстяк Ди - не стукач!
На процессе, который станет самым долгим и самым скандальным судебным разбирательством в США, он будет защищать себя сам. Вступив в непредсказуемый и рискованный поединок с властями, этот наглец и остряк доведет суд до абсурда, обратит факты против своих обвинителей и добьется самого шокирующего вердикта в истории американского правосудия!-Сэмпл: http://yadi.sk/d/9umJoyveAYSfD-Тип релиза: BDRemux 1080p
Контейнер: MKV
Видео: MPEG-4 AVC Video 35999 kbps 1080p / 23.976 fps / 16:9 / High Profile 4.1
Аудио: Russian: 48 kHz, DTS, 5.1, ~768.00 kbps avg |Многоголосый закадровый, CP-Digital|
Аудио 2: Russian: 48 kHz, AC3, 5.1, ~320.00 kbps avg |Двухголосый закадровый|
Аудио 3: DTS-HD Master Audio Russian 5.1 / 48 kHz / 4344 kbps / 24-bit (DTS Core: 5.1 / 48 kHz / 1509 kbps / 24-bit) |Одноголосый закадровый, Д. Есарев|
Аудио 4: DTS-HD Master Audio English 5.1 / 48 kHz / 4377 kbps / 24-bit (DTS Core: 5.1 / 48 kHz / 1509 kbps / 24-bit)

MI

General
Unique ID : 219209766361773994369223847462796702453 (0xA4EA43EB9B624B20BAF93F835542B2F5)
Complete name : E:\Find.Me.Guilty.2006.1080p.BluRay.AVC.Remux.mkv
Format : Matroska
Format version : Version 4 / Version 2
File size : 39.7 GiB
Duration : 2h 4mn
Overall bit rate mode : Variable
Overall bit rate : 45.6 Mbps
Movie name : Find Me Guilty (2006) - Release by SbR
Encoded date : UTC 2013-10-07 13:44:39
Writing application : mkvmerge v6.4.1 ('Omega Point') built on Sep 16 2013 22:05:10
Writing library : libebml v1.3.0 + libmatroska v1.4.1
Attachment : Yes
Video
ID : 1
Format : AVC
Format/Info : Advanced Video Codec
Format profile : High@L4.1
Format settings, CABAC : Yes
Format settings, ReFrames : 4 frames
Codec ID : V_MPEG4/ISO/AVC
Duration : 2h 4mn
Bit rate mode : Variable
Maximum bit rate : 38.0 Mbps
Width : 1 920 pixels
Height : 1 080 pixels
Display aspect ratio : 16:9
Frame rate mode : Constant
Frame rate : 23.976 fps
Color space : YUV
Chroma subsampling : 4:2:0
Bit depth : 8 bits
Scan type : Progressive
Language : English
Default : Yes
Forced : No
Audio #1
ID : 2
Format : DTS
Format/Info : Digital Theater Systems
Mode : 16
Format settings, Endianness : Big
Codec ID : A_DTS
Duration : 2h 4mn
Bit rate mode : Constant
Bit rate : 755 Kbps
Channel(s) : 6 channels
Channel positions : Front: L C R, Side: L R, LFE
Sampling rate : 48.0 KHz
Bit depth : 24 bits
Compression mode : Lossy
Stream size : 673 MiB (2%)
Title : MVO, CP-Digital
Language : Russian
Default : Yes
Forced : No
Audio #2
ID : 3
Format : AC-3
Format/Info : Audio Coding 3
Mode extension : CM (complete main)
Format settings, Endianness : Big
Codec ID : A_AC3
Duration : 2h 4mn
Bit rate mode : Constant
Bit rate : 320 Kbps
Channel(s) : 6 channels
Channel positions : Front: L C R, Side: L R, LFE
Sampling rate : 48.0 KHz
Bit depth : 16 bits
Compression mode : Lossy
Stream size : 286 MiB (1%)
Title : DVO
Language : Russian
Default : No
Forced : No
Audio #3
ID : 4
Format : DTS
Format/Info : Digital Theater Systems
Format profile : MA / Core
Mode : 16
Format settings, Endianness : Big
Codec ID : A_DTS
Duration : 2h 4mn
Bit rate mode : Variable
Bit rate : Unknown / 1 509 Kbps
Channel(s) : 6 channels
Channel positions : Front: L C R, Side: L R, LFE
Sampling rate : 48.0 KHz
Bit depth : 24 bits
Compression mode : Lossless / Lossy
Title : VO, Есарев
Language : Russian
Default : No
Forced : No
Audio #4
ID : 5
Format : DTS
Format/Info : Digital Theater Systems
Format profile : MA / Core
Mode : 16
Format settings, Endianness : Big
Codec ID : A_DTS
Duration : 2h 4mn
Bit rate mode : Variable
Bit rate : Unknown / 1 509 Kbps
Channel(s) : 6 channels
Channel positions : Front: L C R, Side: L R, LFE
Sampling rate : 48.0 KHz
Bit depth : 24 bits
Compression mode : Lossless / Lossy
Language : English
Default : No
Forced : No
Text #1
ID : 6
Format : UTF-8
Codec ID : S_TEXT/UTF8
Codec ID/Info : UTF-8 Plain Text
Title : CP-Digital
Language : Russian
Default : No
Forced : No
Text #2
ID : 7
Format : PGS
Muxing mode : zlib
Codec ID : S_HDMV/PGS
Codec ID/Info : The same subtitle format used on BDs/HD-DVDs
Title : CP-Digital
Language : Russian
Default : No
Forced : No
Text #3
ID : 8
Format : UTF-8
Codec ID : S_TEXT/UTF8
Codec ID/Info : UTF-8 Plain Text
Language : English
Default : No
Forced : No
Text #4
ID : 9
Format : PGS
Muxing mode : zlib
Codec ID : S_HDMV/PGS
Codec ID/Info : The same subtitle format used on BDs/HD-DVDs
Language : English
Default : No
Forced : No
Menu
00:00:00.000 : en:Giuliani's Words
00:01:03.021 : en:The Shooting
00:04:55.378 : en:Bad Day for Jackie
00:07:33.327 : en:No Deal
00:12:56.734 : en:Movin' Out
00:15:22.129 : en:No Attorney
00:18:40.619 : en:Opening Statements
00:24:36.224 : en:Fool for a Client
00:28:04.307 : en:Present the Evidence
00:34:13.426 : en:Jackie & Juarez
00:38:44.739 : en:The Real Reason
00:45:36.400 : en:Looking Italian
00:52:22.556 : en:Delay in Trial
00:57:42.500 : en:Big Mistake
01:04:06.759 : en:Jackie's Brother
01:09:48.934 : en:The Chair
01:14:44.146 : en:Tragic News
01:17:54.211 : en:Unexpected Visitor
01:23:27.002 : en:An Offer
01:24:30.065 : en:Speaking His Peace
01:29:58.434 : en:Strip Search
01:31:08.421 : en:Cousin Tony
01:35:49.744 : en:Seeking the Trouth
01:42:20.592 : en:Closing Arguments
01:49:04.120 : en:Find Me Guilty
01:54:26.901 : en:I Love You Guys
01:58:54.377 : en:Respect From the Block
02:00:19.378 : en:End Credits

Скриншоты





Скачать

Скачать торрент!

Как скачивать? · Что такое торрент? · Рейтинг и ограничения

Сайт не распространяет и не хранит электронные версии произведений, а лишь предоставляет доступ к создаваемому пользователями каталогу ссылок на торрент-файлы, которые содержат только списки хеш-сумм

[Профиль] [ЛС]
Показать сообщения:    
Ответить на тему

Текущее время: Сегодня 03:54

Часовой пояс: GMT + 4



Вы не можете начинать темы
Вы не можете отвечать на сообщения
Вы не можете редактировать свои сообщения
Вы не можете удалять свои сообщения
Вы не можете голосовать в опросах
Вы не можете прикреплять файлы к сообщениям
Вы не можете скачивать файлы