Не повезло (Василий Шестовец) [2013, Драма, фантастика, HDRip]

Ответить на тему
 
Автор Сообщение

user ®

Стаж: 7 лет 7 месяцев

Сообщений: 20008

Пост Пост: #1 от 08-Окт-2013 00:50

[Цитировать]

Не повезло
Жанр: Драма, фантастика
Год выпуска: 2013
Продолжительность: 00:47:27
Режиссёр: Василий Шестовец
В ролях: Вадим Замараев, Михаил Марченко, Игорь Чернышёв, Александр Стрелков, Ольга Юренко, Борис Сазонов и др.
Описание: Следователь Александр Гордеев пытается вывести на чистую воду подозрительно везучего человека - Артура Ваймана, на которого буквально сыплются различные выигрыши. Подозреваемый все списывает на свое природное везение и предлагает провести неформальный следственный эксперимент. Гордеев не верит Вайману даже когда лотерейные билеты, купленные на его глазах, оказываются выигрышными. Везунчик идет дальше и вручает следователю билет Всероссийской Федеральной лотереи с огромным джекпотом. Билет выигрывает! Ошеломленный полицейский уже готов поверить в аномальную удачу этого человека, когда снова сталкивается с ним в криминальных обстоятельствах. Кому повезет на этот раз?

Сэмпл: http://multi-up.com/910810
Качество видео: HDRip (Исх. BDRip 1080p)
Формат видео: AVI
Видео: 720x304 (2.37:1), 25 fps, XviD build 50 ~1599 kbps avg, 0.29 bit/pixel
Аудио: 48 kHz, AC3 Dolby Digital, 3/2 (L,C,R,l,r) + LFE ch, ~448.00 kbps avg

MediaInfo

Общее
Полное имя : S:\Фильмы\Не повезло. 2013. HDRip (AleksSin).avi
Формат : AVI
Формат/Информация : Audio Video Interleave
Размер файла : 698 Мбайт
Продолжительность : 47 м.
Общий поток : 2056 Кбит/сек
Программа кодирования : VirtualDubMod 1.5.10.3 | www.virtualdub-fr.org || (build 2550/release)
Библиотека кодирования : VirtualDubMod build 2550/release
Видео
Идентификатор : 0
Формат : MPEG-4 Visual
Профиль формата : Advanced Simple@L5
Параметр BVOP формата : 2
Параметр QPel формата : Нет
Параметр GMC формата : Без точки перехода
Параметр матрицы формата : Default (H.263)
Идентификатор кодека : XVID
Идентификатор кодека/Подсказка : XviD
Продолжительность : 47 м.
Битрейт : 1599 Кбит/сек
Ширина : 720 пикс.
Высота : 304 пикс.
Соотношение сторон : 2,35:1
Частота кадров : 25,000 кадр/сек
Цветовое пространство : YUV
Подвыборка цветности : 4:2:0
Битовая глубина : 8 бит
Тип развёртки : Прогрессивная
Метод сжатия : С потерями
Бит/(Пиксели*Кадры) : 0.292
Размер потока : 543 Мбайт (78%)
Библиотека кодирования : XviD 1.2.1 (UTC 2008-12-04)
Аудио
Идентификатор : 1
Формат : AC-3
Формат/Информация : Audio Coding 3
Расширение режима : CM (complete main)
Идентификатор кодека : 2000
Продолжительность : 47 м.
Вид битрейта : Постоянный
Битрейт : 448 Кбит/сек
Каналы : 6 каналов
Расположение каналов : Front: L C R, Side: L R, LFE
Частота : 48,0 КГц
Битовая глубина : 16 бит
Метод сжатия : С потерями
Размер потока : 152 Мбайт (22%)
Выравнивание : Разделение по промежуткам
Продолжительность промежутка : 40 мс. (1,00 видеокадр)
Время предзагрузки промежутка : 500 ms

Скриншот c названием фильма

Скриншоты

Скачать

Скачать торрент!

Как скачивать? · Что такое торрент? · Рейтинг и ограничения

Сайт не распространяет и не хранит электронные версии произведений, а лишь предоставляет доступ к создаваемому пользователями каталогу ссылок на торрент-файлы, которые содержат только списки хеш-сумм

[Профиль] [ЛС]
Показать сообщения:    
Ответить на тему

Текущее время: Сегодня 00:10

Часовой пояс: GMT + 4



Вы не можете начинать темы
Вы не можете отвечать на сообщения
Вы не можете редактировать свои сообщения
Вы не можете удалять свои сообщения
Вы не можете голосовать в опросах
Вы не можете прикреплять файлы к сообщениям
Вы не можете скачивать файлы