Груз 200 (Алекcей Балабанoв) [2007, криминальная драма, BDRip-AVC]

Ответить на тему
 
Автор Сообщение

user ®

Стаж: 7 лет 7 месяцев

Сообщений: 20008

Пост Пост: #1 от 07-Окт-2013 21:40

[Цитировать]

Груз 200
Страна: Россия
Жанр: криминальная драма
Год выпуска: 2007
Продолжительность: 01:28:55
Субтитры: нет
Режиссёр: Алекcей Балабанoв
В ролях: Агния Кузнецова (Анжелика), Алексей Полуян (капитан Журов), Леонид Громов (профессор Артем), Алексей Серебряков (Алексей), Леонид Бичевин (Валера), Наталья Акимова (Антонина, жена Алексея), Юрий Степанов (Михаил), Михаил Скрябин (Сунька), Сергей Александров (майор Дуев), Валентина Андрюкова (мать Журова), Константин Балакирев (Коля Горбунов), Александр Баширов (алкоголик)
Описание: Жестокая драма в провинциальном советском городе в разгар афганской войны.
Не рекомендую смотреть особо впечатлительным.
Семпл: http://multi-up.com/910714
Качество видео: BDRip-AVC
Формат видео: MKV
Видео: 1152x648 (1.78:1), AVC (H.264), 23,976 fps, 1889 kbps avg, 0.106 bit/pixel
Аудио: 48 KHz, AC3, 6 ch, 448 Kbps

MediaInfo

Общее
Уникальный идентификатор : 224768102878782992054903995208074799162 (0xA918C311A0D5A893AF147199210C283A)
Полное имя : D:\Кино\Груз 200.mkv
Формат : Matroska
Версия формата : Version 2
Размер файла : 1,46 Гбайт
Продолжительность : 1 ч. 29 м.
Общий поток : 2336 Кбит/сек
Дата кодирования : UTC 2013-10-07 13:00:36
Программа кодирования : mkvmerge v4.0.0 ('The Stars were mine') сборка от Jun 6 2010 16:18:42
Библиотека кодирования : libebml v1.0.0 + libmatroska v1.0.0
Видео
Идентификатор : 1
Формат : AVC
Формат/Информация : Advanced Video Codec
Профиль формата : High@L4.1
Параметр CABAC формата : Да
Параметр ReFrames формата : 11 кадров
Идентификатор кодека : V_MPEG4/ISO/AVC
Продолжительность : 1 ч. 29 м.
Битрейт : 1889 Кбит/сек
Ширина : 1152 пикселя
Высота : 648 пикселей
Соотношение сторон : 16:9
Режим частоты кадров : Постоянный
Частота кадров : 23,976 кадра/сек
Цветовое пространство : YUV
Субдискретизация насыщенности : 4:2:0
Битовая глубина : 8 бит
Тип развёртки : Прогрессивная
Бит/(Пиксели*Кадры) : 0.106
Размер потока : 1,15 Гбайт (79%)
Библиотека кодирования : x264 core 133 r2334 a3ac64b
Настройки программы : cabac=1 / ref=11 / deblock=1:-2:-1 / analyse=0x3:0x133 / me=umh / subme=10 / psy=1 / psy_rd=1.00:0.10 / mixed_ref=1 / me_range=32 / chroma_me=1 / trellis=2 / 8x8dct=1 / cqm=0 / deadzone=21,11 / fast_pskip=0 / chroma_qp_offset=-3 / threads=3 / lookahead_threads=1 / sliced_threads=0 / nr=0 / decimate=1 / interlaced=0 / bluray_compat=0 / constrained_intra=0 / bframes=10 / b_pyramid=2 / b_adapt=2 / b_bias=0 / direct=3 / weightb=1 / open_gop=0 / weightp=2 / keyint=240 / keyint_min=23 / scenecut=40 / intra_refresh=0 / rc_lookahead=60 / rc=2pass / mbtree=1 / bitrate=1889 / ratetol=1.0 / qcomp=0.60 / qpmin=10 / qpmax=51 / qpstep=4 / cplxblur=20.0 / qblur=0.5 / vbv_maxrate=50000 / vbv_bufsize=50000 / nal_hrd=none / ip_ratio=1.40 / aq=1:1.00
Default : Нет
Forced : Нет
Аудио
Идентификатор : 2
Формат : AC-3
Формат/Информация : Audio Coding 3
Расширение режима : CM (complete main)
Параметр Endianness формата : Big
Идентификатор кодека : A_AC3
Продолжительность : 1 ч. 29 м.
Вид битрейта : Постоянный
Битрейт : 448 Кбит/сек
Каналы : 6 каналов
Расположение каналов : Front: L C R, Side: L R, LFE
Частота : 48,0 КГц
Битовая глубина : 16 бит
Метод сжатия : С потерями
Размер потока : 286 Мбайт (19%)
Default : Да
Forced : Нет

Скриншоты

лог

---[Information] [06.10.2013 13:46:24] avs [info]: 1152x648p 1:1 @ 24000/1001 fps (cfr)
---[Information] [06.10.2013 13:46:24] x264 [info]: using SAR=1/1
---[Information] [06.10.2013 13:46:24] x264 [info]: using cpu capabilities: MMX2 SSE2Fast SSEMisalign LZCNT
---[Information] [06.10.2013 13:46:24] x264 [info]: profile High, level 4.1
---[Information] [07.10.2013 0:57:42] x264 [info]: frame I:757 Avg QP:17.47 size: 91265
---[Information] [07.10.2013 0:57:42] x264 [info]: frame P:23583 Avg QP:21.00 size: 25402
---[Information] [07.10.2013 0:57:42] x264 [info]: frame B:104091 Avg QP:24.40 size: 5720
---[Information] [07.10.2013 0:57:42] x264 [info]: consecutive B-frames: 1.1% 1.3% 4.0% 11.5% 14.2% 42.4% 10.7% 3.3% 4.8% 3.8% 3.0%
---[Information] [07.10.2013 0:57:42] x264 [info]: mb I I16..4: 10.2% 71.6% 18.1%
---[Information] [07.10.2013 0:57:42] x264 [info]: mb P I16..4: 1.3% 4.0% 0.6% P16..4: 47.7% 18.5% 17.0% 0.3% 0.1% skip:10.5%
---[Information] [07.10.2013 0:57:42] x264 [info]: mb B I16..4: 0.1% 0.3% 0.0% B16..8: 40.1% 5.9% 1.4% direct: 2.6% skip:49.6% L0:46.6% L1:47.8% BI: 5.7%
---[Information] [07.10.2013 0:57:42] x264 [info]: 8x8 transform intra:70.4% inter:65.2%
---[Information] [07.10.2013 0:57:42] x264 [info]: direct mvs spatial:98.3% temporal:1.7%
---[Information] [07.10.2013 0:57:42] x264 [info]: coded y,uvDC,uvAC intra: 76.4% 59.2% 31.4% inter: 15.1% 6.6% 0.6%
---[Information] [07.10.2013 0:57:42] x264 [info]: i16 v,h,dc,p: 70% 11% 7% 13%
---[Information] [07.10.2013 0:57:42] x264 [info]: i8 v,h,dc,ddl,ddr,vr,hd,vl,hu: 12% 9% 6% 9% 14% 13% 13% 11% 12%
---[Information] [07.10.2013 0:57:42] x264 [info]: i4 v,h,dc,ddl,ddr,vr,hd,vl,hu: 13% 10% 4% 9% 14% 14% 13% 11% 13%
---[Information] [07.10.2013 0:57:42] x264 [info]: i8c dc,h,v,p: 40% 27% 20% 12%
---[Information] [07.10.2013 0:57:42] x264 [info]: Weighted P-Frames: Y:3.1% UV:1.1%
---[Information] [07.10.2013 0:57:42] x264 [info]: ref P L0: 38.5% 9.3% 20.6% 6.6% 6.9% 4.3% 4.8% 2.1% 2.6% 1.8% 2.2% 0.1% 0.0%
---[Information] [07.10.2013 0:57:42] x264 [info]: ref B L0: 65.1% 14.5% 7.3% 3.8% 2.8% 2.3% 1.8% 1.1% 0.8% 0.3%
---[Information] [07.10.2013 0:57:42] x264 [info]: ref B L1: 90.9% 9.1%
---[Information] [07.10.2013 0:57:42] x264 [info]: kb/s:1887.09
---[Information] [07.10.2013 0:57:42] encoded 128431 frames, 3.19 fps, 1887.09 kb/s
Скачать

Скачать торрент!

Как скачивать? · Что такое торрент? · Рейтинг и ограничения

Сайт не распространяет и не хранит электронные версии произведений, а лишь предоставляет доступ к создаваемому пользователями каталогу ссылок на торрент-файлы, которые содержат только списки хеш-сумм

[Профиль] [ЛС]
Показать сообщения:    
Ответить на тему

Текущее время: Сегодня 12:11

Часовой пояс: GMT + 4



Вы не можете начинать темы
Вы не можете отвечать на сообщения
Вы не можете редактировать свои сообщения
Вы не можете удалять свои сообщения
Вы не можете голосовать в опросах
Вы не можете прикреплять файлы к сообщениям
Вы не можете скачивать файлы