Копы в юбках / The Heat (Пол Фиг / Paul Feig) [2013, США, комедия, криминал, боевик, детектив, BDRip] [Театральная версия / Theatrical Cut] Dub (звук с TS) + Original (Eng)

Ответить на тему
 
Автор Сообщение

user ®

Стаж: 7 лет 7 месяцев

Сообщений: 20008

Пост Пост: #1 от 07-Окт-2013 21:40

[Цитировать]

Копы в юбках / The Heat
Театральная версия / Theatrical Cut

Страна: США
Жанр: комедия, криминал, боевик, детектив
Год выпуска: 2013
Продолжительность: 01:57:04
Перевод: Профессиональный (дублированный) звук с TS
Cубтитры: нет
Оригинальная аудиодорожка: английская
Режиссер: Пол Фиг / Paul Feig
В ролях: Сандра Буллок, Мелисса МакКарти, Демиан Бишир, Марлон Уайанс, Майкл Рапапорт, Джейн Куртин, Спокен Ризонс, Дэн Баккедаль, Таран Киллэм, Майкл МакДональд
Описание: Агенту ФБР и бостонскому полицейскому доверено ответственное задание: выйти на след и обезвредить опасного преступника. И это даже хорошо, что копы — женщины, ведь бандит-то — русский. А непредсказуемости русской смекалки можно противопоставить только столь же непредсказуемую женскую логику.

Качество видео: BDRip [Рип с The Heat 2013 Theatrical Cut 1080p Blu-ray Remux AVC DTS-HD MA 5.1 - KRaLiMaRKo]
Формат видео: AVI
Видео: 688x288 (2.39:1), 23.976 fps, XviD build 73 ~1324 kbps avg, 0.28 bit/pixel
Аудио: 48 kHz, AC3 Dolby Digital, 2/0 (L,R) ch, ~192 kbps [rus]
Аудио 2: 48 kHz, AC3 Dolby Digital, 3/2 (L,C,R,l,r) + LFE ch, ~256 kbps [eng]

MediaInfo

Complete name : The.Heat.2013.Theatrical.Cut.XviD.BDRip-ed_rez.avi
Format : AVI
Format/Info : Audio Video Interleave
File size : 1.46 GiB
Duration : 1h 57mn
Overall bit rate : 1 787 Kbps
Movie name : The Heat (2013) Theatrical Cut
Writing application : VirtualDubMod 1.5.10.3 (build 2550/release)
Copyright : ed_rez
Video
ID : 0
Format : MPEG-4 Visual
Format profile : Advanced Simple@L5
Format settings, BVOP : 1
Format settings, QPel : No
Format settings, GMC : No warppoints
Format settings, Matrix : Custom
Codec ID : XVID
Codec ID/Hint : XviD
Duration : 1h 57mn
Bit rate : 1 325 Kbps
Width : 688 pixels
Height : 288 pixels
Display aspect ratio : 2.40:1
Frame rate : 23.976 fps
Color space : YUV
Chroma subsampling : 4:2:0
Bit depth : 8 bits
Scan type : Progressive
Compression mode : Lossy
Bits/(Pixel*Frame) : 0.279
Stream size : 1.08 GiB (74%)
Writing library : XviD 73
Audio #1
ID : 1
Format : AC-3
Format/Info : Audio Coding 3
Mode extension : CM (complete main)
Format settings, Endianness : Big
Codec ID : 2000
Duration : 1h 56mn
Bit rate mode : Constant
Bit rate : 192 Kbps
Channel count : 2 channels
Channel positions : Front: L R
Sampling rate : 48.0 KHz
Bit depth : 16 bits
Compression mode : Lossy
Stream size : 160 MiB (11%)
Alignment : Split accross interleaves
Interleave, duration : 42 ms (1.00 video frame)
Interleave, preload duration : 500 ms
Audio #2
ID : 2
Format : AC-3
Format/Info : Audio Coding 3
Mode extension : CM (complete main)
Format settings, Endianness : Big
Codec ID : 2000
Duration : 1h 57mn
Bit rate mode : Constant
Bit rate : 256 Kbps
Channel count : 6 channels
Channel positions : Front: L C R, Side: L R, LFE
Sampling rate : 48.0 KHz
Bit depth : 16 bits
Compression mode : Lossy
Stream size : 214 MiB (14%)
Alignment : Split accross interleaves
Interleave, duration : 42 ms (1.00 video frame)
Interleave, preload duration : 500 ms

Скриншоты

Скачать

Скачать торрент!

Как скачивать? · Что такое торрент? · Рейтинг и ограничения

Сайт не распространяет и не хранит электронные версии произведений, а лишь предоставляет доступ к создаваемому пользователями каталогу ссылок на торрент-файлы, которые содержат только списки хеш-сумм

[Профиль] [ЛС]
Показать сообщения:    
Ответить на тему

Текущее время: Сегодня 20:06

Часовой пояс: GMT + 4



Вы не можете начинать темы
Вы не можете отвечать на сообщения
Вы не можете редактировать свои сообщения
Вы не можете удалять свои сообщения
Вы не можете голосовать в опросах
Вы не можете прикреплять файлы к сообщениям
Вы не можете скачивать файлы