Безопасность не гарантируется / Safety not guaranteed (Колин Треворроу / Colin Trevorrow) [2012, США, фантастика, драма, комедия, BDRip 1080p] MVO + VO (advokat) + Sub Eng + Original Eng

Ответить на тему
 
Автор Сообщение

user ®

Стаж: 7 лет 7 месяцев

Сообщений: 20008

Пост Пост: #1 от 07-Окт-2013 01:15

[Цитировать]

Безопасность не гарантируется / Safety not guaranteed
Страна: США
Студия: Big Beach Films, Duplass Brothers Productions
Жанр: фантастика, драма, комедия
Год выпуска: 2012
Продолжительность: 01:25:47
Перевод: Профессиональный (многоголосый закадровый)
Перевод 2: Одноголосый закадровый advokat
Cубтитры: английские
Оригинальная аудиодорожка: английский
Режиссер: Колин Треворроу / Colin Trevorrow
В ролях: Обри Плаза, Лорен Карлос, Бейзил Харрис, Мэри Линн Райскаб, Джейк Джонсон, Каран Сони, Дэвид Шульц, Джефф Гарлин, Марк Дюпласс, Уильям Холл мл.
Описание: Троим журналистам поручают взять интервью у парня, который разместил весьма странное объявление о том, что ищет напарника для путешествий во времени.
Меню: нет
Сэмпл: http://multi-up.com/910186
Тип релиза: BDRip 1080p
Контейнер: MKV
Видео: 1920x816p(2.35:1), 23.976 fps, x264 ~9431 kbps
Аудио: Английский DTS 5.1, 48 kHz, 32 bit, 1536 kbps
Аудио 2: Русский AC3 2.0, 48 kHz, 192 kbps — профессиональный (многоголосый, закадровый)
Аудио 3: Русский AC3 2.0, 48 kHz, 384 kbps — одноголосый закадровый advokat
Формат субтитров: softsub (SRT)

MediaInfo

General
Unique ID : 246674596872362798321350021085709488765 (0xB993CC9C8A48396286E552F072C0527D)
Complete name : D:\HD\Safety Not Guaranteed\safety.not.guaranteed.2012.limited.1080p.bluray.x264-sparks.RUS.mkv
Format : Matroska
Format version : Version 4 / Version 2
File size : 6.90 GiB
Duration : 1h 25mn
Overall bit rate : 11.5 Mbps
Encoded date : UTC 2013-10-05 15:34:36
Writing application : mkvmerge v6.4.1 ('Omega Point') built on Sep 16 2013 22:05:10
Writing library : libebml v1.3.0 + libmatroska v1.4.1
Video
ID : 1
Format : AVC
Format/Info : Advanced Video Codec
Format profile : High@L4.1
Format settings, CABAC : Yes
Format settings, ReFrames : 5 frames
Codec ID : V_MPEG4/ISO/AVC
Duration : 1h 25mn
Bit rate : 9 431 Kbps
Width : 1 920 pixels
Height : 816 pixels
Display aspect ratio : 2.35:1
Frame rate mode : Constant
Frame rate : 23.976 fps
Color space : YUV
Chroma subsampling : 4:2:0
Bit depth : 8 bits
Scan type : Progressive
Bits/(Pixel*Frame) : 0.251
Stream size : 5.51 GiB (80%)
Writing library : x264 core 128 r2216 198a7ea
Encoding settings : cabac=1 / ref=5 / deblock=1:0:0 / analyse=0x3:0x133 / me=umh / subme=7 / psy=1 / psy_rd=1.00:0.00 / mixed_ref=1 / me_range=16 / chroma_me=1 / trellis=1 / 8x8dct=1 / cqm=0 / deadzone=21,11 / fast_pskip=0 / chroma_qp_offset=-2 / threads=12 / lookahead_threads=2 / sliced_threads=0 / nr=0 / decimate=1 / interlaced=0 / bluray_compat=0 / constrained_intra=0 / bframes=3 / b_pyramid=2 / b_adapt=1 / b_bias=0 / direct=1 / weightb=1 / open_gop=0 / weightp=2 / keyint=250 / keyint_min=23 / scenecut=40 / intra_refresh=0 / rc_lookahead=40 / rc=2pass / mbtree=1 / bitrate=9431 / ratetol=1.0 / qcomp=0.60 / qpmin=0 / qpmax=69 / qpstep=4 / cplxblur=20.0 / qblur=0.5 / ip_ratio=1.40 / aq=1:1.00
Language : English
Default : Yes
Forced : No
Audio #1
ID : 2
Format : DTS
Format/Info : Digital Theater Systems
Mode : 16
Format settings, Endianness : Big
Codec ID : A_DTS
Duration : 1h 25mn
Bit rate mode : Constant
Bit rate : 1 509 Kbps
Channel(s) : 6 channels
Channel positions : Front: L C R, Side: L R, LFE
Sampling rate : 48.0 KHz
Bit depth : 24 bits
Compression mode : Lossy
Stream size : 926 MiB (13%)
Language : English
Default : No
Forced : No
Audio #2
ID : 3
Format : AC-3
Format/Info : Audio Coding 3
Mode extension : CM (complete main)
Format settings, Endianness : Big
Codec ID : A_AC3
Duration : 1h 25mn
Bit rate mode : Constant
Bit rate : 192 Kbps
Channel(s) : 2 channels
Channel positions : Front: L R
Sampling rate : 48.0 KHz
Bit depth : 16 bits
Compression mode : Lossy
Stream size : 118 MiB (2%)
Title : Русский многоголосый
Default : Yes
Forced : No
Audio #3
ID : 4
Format : AC-3
Format/Info : Audio Coding 3
Mode extension : CM (complete main)
Format settings, Endianness : Big
Codec ID : A_AC3
Duration : 1h 25mn
Bit rate mode : Constant
Bit rate : 384 Kbps
Channel(s) : 6 channels
Channel positions : Front: L C R, Side: L R, LFE
Sampling rate : 48.0 KHz
Bit depth : 16 bits
Compression mode : Lossy
Stream size : 236 MiB (3%)
Title : Русский одноголосый (advokat)
Default : No
Forced : No
Text #1
ID : 5
Format : UTF-8
Codec ID : S_TEXT/UTF8
Codec ID/Info : UTF-8 Plain Text
Language : English
Default : No
Forced : No
Text #2
ID : 6
Format : UTF-8
Codec ID : S_TEXT/UTF8
Codec ID/Info : UTF-8 Plain Text
Language : English
Default : No
Forced : No
Menu
00:00:00.000 : en:00:00:00.000
00:05:57.190 : en:00:05:57.190
00:12:43.680 : en:00:12:43.680
00:18:08.379 : en:00:18:08.379
00:23:40.002 : en:00:23:40.002
00:26:50.192 : en:00:26:50.192
00:31:09.409 : en:00:31:09.409
00:34:22.769 : en:00:34:22.769
00:38:21.549 : en:00:38:21.549
00:46:51.267 : en:00:46:51.267
00:51:50.024 : en:00:51:50.024
00:57:20.395 : en:00:57:20.395
01:05:30.677 : en:01:05:30.677
01:09:57.610 : en:01:09:57.610
01:15:03.332 : en:01:15:03.332
01:17:46.829 : en:01:17:46.829

Скриншоты



Скачать

Скачать торрент!

Как скачивать? · Что такое торрент? · Рейтинг и ограничения

Сайт не распространяет и не хранит электронные версии произведений, а лишь предоставляет доступ к создаваемому пользователями каталогу ссылок на торрент-файлы, которые содержат только списки хеш-сумм

[Профиль] [ЛС]
Показать сообщения:    
Ответить на тему

Текущее время: Сегодня 08:04

Часовой пояс: GMT + 4



Вы не можете начинать темы
Вы не можете отвечать на сообщения
Вы не можете редактировать свои сообщения
Вы не можете удалять свои сообщения
Вы не можете голосовать в опросах
Вы не можете прикреплять файлы к сообщениям
Вы не можете скачивать файлы