Вальпараисо / Valparaiso (Жан-Кристоф Дельпиа / Jean-Christophe Delpias) [2011, Франция, Бельгия, Люксембург, триллер, HDTV 1080i] MVO

Ответить на тему
 
Автор Сообщение

user ®

Стаж: 7 лет 7 месяцев

Сообщений: 20008

Пост Пост: #1 от 07-Окт-2013 01:15

[Цитировать]

Вальпараисо / Valparaiso
Страна: Франция, Бельгия, Люксембург
Жанр: триллер
Год выпуска: 2011
Продолжительность: 01:37:15
Перевод: Профессиональный (многоголосый закадровый)
Cубтитры: нет
Режиссер: Жан-Кристоф Дельпиа / Jean-Christophe Delpias
В ролях: Жан-Франсуа Стевенен, Питер Койот, Элена Ногуэрра, Франсуа Карон, Тьерри Годар, Сандрин Бланк
Описание:
В 9.07 вечера по Гринвичу в проливе Ла-Манш супертанкер "Великолепный", перевозящий 400 000 тонн нефти налетел на риф. Удар был настолько силен, что пробил корпус. Корабль был обречен и затонул, а разлив нефти привел к тяжелым экологическим последствиям. В Брюсселе Эмма Кальон, молодой эколог, участвует в работе комиссии, специально созданной Европарламентом для расследования этого инцидента. Вскоре она обнаруживает, что партия нефти была незаконно куплена международной корпорацией и в этом деле замешан ее отец, который неожиданно для себя узнает, что следующий проект корпорации - это сброс ядерных отходов в море...
Доп. информация: запись со спутника (телеканал Кинопоказ HD-1, Триколор ТВ).
Сэмпл: http://multi-up.com/910389
Качество видео: HDTV 1080i
Формат видео: TS
Видео: AVC/H.264, 1920x1080 (16:9), 8031 Кбит/сек, 25.000 fps, 0.155 bit/pixe
Аудио: Русский, Mp-2, 2 ch, 48,0 КГц, 192 Кбит/сек

MediaInfo

Видео
Идентификатор : 4096 (0x1000)
Идентификатор меню : 1 (0x1)
Формат : AVC
Формат/Информация : Advanced Video Codec
Профиль формата : High@L4.1
Параметр CABAC формата : Да
Параметр ReFrames формата : 3 кадра
Идентификатор кодека : 27
Продолжительность : 1 ч. 37 м.
Вид битрейта : Постоянный
Битрейт : 8031 Кбит/сек
Ширина : 1920 пикселей
Высота : 1080 пикселей
Соотношение сторон : 16:9
Частота кадров : 25,000 кадров/сек
Стандарт вещания : PAL
Цветовое пространство : YUV
Субдискретизация насыщенности : 4:2:0
Битовая глубина : 8 бит
Тип развёртки : Прогрессивная
Бит/(Пиксели*Кадры) : 0.155
Размер потока : 5,36 Гбайт (93%)
Основные цвета : BT.709
Характеристики трансфера : BT.709
Коэффициенты матрицы : BT.709
Аудио
Идентификатор : 4097 (0x1001)
Идентификатор меню : 1 (0x1)
Формат : MPEG Audio
Версия формата : Version 1
Профиль формата : Layer 2
Идентификатор кодека : 3
Продолжительность : 1 ч. 37 м.
Вид битрейта : Постоянный
Битрейт : 192 Кбит/сек
Каналы : 2 канала
Частота : 48,0 КГц
Метод сжатия : С потерями
Задержка видео : 8 мс.
Размер потока : 134 Мбайт (2%)

Скриншот c названием фильма

Скриншоты

Скачать

Скачать торрент!

Как скачивать? · Что такое торрент? · Рейтинг и ограничения

Сайт не распространяет и не хранит электронные версии произведений, а лишь предоставляет доступ к создаваемому пользователями каталогу ссылок на торрент-файлы, которые содержат только списки хеш-сумм

[Профиль] [ЛС]
Показать сообщения:    
Ответить на тему

Текущее время: Сегодня 18:23

Часовой пояс: GMT + 4



Вы не можете начинать темы
Вы не можете отвечать на сообщения
Вы не можете редактировать свои сообщения
Вы не можете удалять свои сообщения
Вы не можете голосовать в опросах
Вы не можете прикреплять файлы к сообщениям
Вы не можете скачивать файлы