Деннис-мучитель / Несносный Деннис / Dennis the Menace (Ник Касл / Nick Castle) [1993, США, комедия, семейный, WEB-DL 720p] Dub (Варус Видео) + MVO + MVO (ВГТРК) + AVO (Горчаков) + AVO (Пронин) + Original Eng + Sub Eng

Ответить на тему
 
Автор Сообщение

user ®

Стаж: 7 лет 7 месяцев

Сообщений: 20008

Пост Пост: #1 от 07-Окт-2013 01:15

[Цитировать]

Деннис-мучитель / Несносный Деннис / Dennis the Menace
Страна: США
Студия: Warner Bros.
Жанр: комедия, семейный
Год выпуска: 1993
Продолжительность: 01:35:59
Перевод 1: Профессиональный (дублированный) Варус Видео
Перевод 2: Профессиональный (многоголосый закадровый)
Перевод 3: Профессиональный (многоголосый закадровый) ВГТРК
Перевод 4: Авторский (одноголосый закадровый) Антон Пронин
Перевод 5: Авторский (одноголосый закадровый) Василий Горчаков
Оригинальная аудиодорожка: Английская
Cубтитры: английские
Режиссер: Ник Касл / Nick Castle
В ролях: Уолтер Мэттау, Мейсон Гэмбл, Кристофер Ллойд, Лиа Томпсон, Наташа Лионн, Бен Стайн, Девин Рэтрей, Джоан Плаурайт, Билл Эрвин, Пол Уинфилд, Роберт Стэнтон, Мейсон Гэмбл, Билли Бёрд, Эми Сакасиц, Келлен Хэтэуэй, Мелинда Маллинз
Описание: Маленький Дэннис — настоящая угроза для всех, кто оказывается рядом с ним. Больше всех от его проделок страдает пожилой сосед. Но и самому Дэннису угрожает опасность — недалеко от его дома появился бродяга, замышляющий что-то нехорошее…
Kinopoisk:
6.010 (7547)
IMDb:
5.20 (27 857)
Сэмпл
Тип релиза: WEB-DL 720p
Контейнер: MKV
Видео: AVC H.264, 1 280х720 (16:9), 23.976 fps, 4 077 Kbps [GABE]
Аудио 1: 48 kHz, AC3 Dolby Digital, 2/0 (L,R) ch, ~192 kbps (DUB)
Аудио 2: 48 kHz, AC3 Dolby Digital, 2/0 (L,R) ch, ~160 kbps (MVO)
Аудио 3: 48 kHz, AC3 Dolby Digital, 2/0 (L,R) ch, ~192 kbps (MVO)
Аудио 4: 48 kHz, AC3 Dolby Digital, 2/0 (L,R) ch, ~192 kbps (AVO)
Аудио 5: 48 kHz, AC3 Dolby Digital, 2/0 (L,R) ch, ~192 kbps (AVO)
Аудио 6: 48 kHz, AC3 Dolby Digital, 2/0 (L,R) ch, ~192 kbps (ENG)
Формат субтитров: softsub (SRT)
-

MediaInfo

Complete name : Dennis.the.Menace.1993.720p.WEB-DL.DUB.2xMVO.2xAVO.ENG.SUB.mkv
Format : Matroska
Format version : Version 4 / Version 2
File size : 3.55 GiB
Duration : 1h 35mn
Overall bit rate : 5 295 Kbps
Encoded date : UTC 2013-10-06 17:19:30
Writing application : mkvmerge v6.4.1 ('Omega Point') built on Sep 16 2013 22:05:10
Writing library : libebml v1.3.0 + libmatroska v1.4.1
Video
ID : 1
Format : AVC
Format/Info : Advanced Video Codec
Format profile : High@L3.1
Format settings, CABAC : No
Format settings, ReFrames : 2 frames
Codec ID : V_MPEG4/ISO/AVC
Duration : 1h 35mn
Bit rate : 4 070 Kbps
Width : 1 276 pixels
Height : 720 pixels
Display aspect ratio : 16:9
Frame rate mode : Constant
Frame rate : 23.976 fps
Color space : YUV
Chroma subsampling : 4:2:0
Bit depth : 8 bits
Scan type : Progressive
Bits/(Pixel*Frame) : 0.185
Stream size : 2.73 GiB (77%)
Language : English
Default : Yes
Forced : No
Color primaries : BT.709
Transfer characteristics : BT.709
Matrix coefficients : BT.709
Audio #1
ID : 2
Format : AC-3
Format/Info : Audio Coding 3
Mode extension : CM (complete main)
Format settings, Endianness : Big
Codec ID : A_AC3
Duration : 1h 35mn
Bit rate mode : Constant
Bit rate : 192 Kbps
Channel(s) : 2 channels
Channel positions : Front: L R
Sampling rate : 48.0 KHz
Bit depth : 16 bits
Compression mode : Lossy
Stream size : 132 MiB (4%)
Title : Дубляж
Language : Russian
Default : Yes
Forced : No
Audio #2
ID : 3
Format : AC-3
Format/Info : Audio Coding 3
Mode extension : CM (complete main)
Format settings, Endianness : Big
Codec ID : A_AC3
Duration : 1h 35mn
Bit rate mode : Constant
Bit rate : 160 Kbps
Channel(s) : 2 channels
Channel positions : Front: L R
Sampling rate : 48.0 KHz
Bit depth : 16 bits
Compression mode : Lossy
Stream size : 110 MiB (3%)
Language : Russian
Default : No
Forced : No
Audio #3
ID : 4
Format : AC-3
Format/Info : Audio Coding 3
Mode extension : CM (complete main)
Format settings, Endianness : Big
Codec ID : A_AC3
Duration : 1h 35mn
Bit rate mode : Constant
Bit rate : 192 Kbps
Channel(s) : 2 channels
Channel positions : Front: L R
Sampling rate : 48.0 KHz
Bit depth : 16 bits
Compression mode : Lossy
Stream size : 132 MiB (4%)
Title : Россия
Language : Russian
Default : No
Forced : No
Audio #4
ID : 5
Format : AC-3
Format/Info : Audio Coding 3
Mode extension : CM (complete main)
Format settings, Endianness : Big
Codec ID : A_AC3
Duration : 1h 35mn
Bit rate mode : Constant
Bit rate : 192 Kbps
Channel(s) : 2 channels
Channel positions : Front: L R
Sampling rate : 48.0 KHz
Bit depth : 16 bits
Compression mode : Lossy
Stream size : 132 MiB (4%)
Title : Горчаков
Language : Russian
Default : No
Forced : No
Audio #5
ID : 6
Format : AC-3
Format/Info : Audio Coding 3
Mode extension : CM (complete main)
Format settings, Endianness : Big
Codec ID : A_AC3
Duration : 1h 35mn
Bit rate mode : Constant
Bit rate : 192 Kbps
Channel(s) : 2 channels
Channel positions : Front: L R
Sampling rate : 48.0 KHz
Bit depth : 16 bits
Compression mode : Lossy
Stream size : 132 MiB (4%)
Title : Пронин
Default : No
Forced : No
Audio #6
ID : 7
Format : AC-3
Format/Info : Audio Coding 3
Format profile : Dolby Digital
Mode extension : CM (complete main)
Format settings, Endianness : Big
Codec ID : A_AC3
Duration : 1h 35mn
Bit rate mode : Constant
Bit rate : 192 Kbps
Channel(s) : 2 channels
Channel positions : Front: L R
Sampling rate : 48.0 KHz
Bit depth : 16 bits
Compression mode : Lossy
Stream size : 132 MiB (4%)
Language : English
Default : No
Forced : No
Text
ID : 8
Format : UTF-8
Codec ID : S_TEXT/UTF8
Codec ID/Info : UTF-8 Plain Text
Language : English
Default : No
Forced : No
Menu
00:00:00.000 : en:Chapter 1.
00:08:59.000 : en:Chapter 2.
00:18:33.000 : en:Chapter 3.
00:25:31.000 : en:Chapter 4.
00:35:02.000 : en:Chapter 5.
00:43:09.000 : en:Chapter 6.
00:51:45.000 : en:Chapter 7.
01:01:50.000 : en:Chapter 8.
01:08:53.000 : en:Chapter 9.
01:17:35.000 : en:Chapter 10.
01:23:15.000 : en:Chapter 11.
01:27:23.000 : en:Chapter 12.
01:31:25.000 : en:Chapter 13.

Скриншоты

Скачать

Скачать торрент!

Как скачивать? · Что такое торрент? · Рейтинг и ограничения

Сайт не распространяет и не хранит электронные версии произведений, а лишь предоставляет доступ к создаваемому пользователями каталогу ссылок на торрент-файлы, которые содержат только списки хеш-сумм

[Профиль] [ЛС]
Показать сообщения:    
Ответить на тему

Текущее время: Сегодня 18:39

Часовой пояс: GMT + 4



Вы не можете начинать темы
Вы не можете отвечать на сообщения
Вы не можете редактировать свои сообщения
Вы не можете удалять свои сообщения
Вы не можете голосовать в опросах
Вы не можете прикреплять файлы к сообщениям
Вы не можете скачивать файлы