Тихоокеанский рубеж / Pacific Rim (Гильермо дель Торо / Guillermo del Toro) [2013, США, фантастика, фэнтези, боевик, BDRip 720p] MVO + Orig + Subs

Ответить на тему
 
Автор Сообщение

user ®

Стаж: 7 лет 7 месяцев

Сообщений: 20008

Пост Пост: #1 от 07-Окт-2013 01:15

[Цитировать]

Тихоокеанский рубежPacific Rim«Чтобы сражаться с монстрами, мы создали монстров»- Страна: США
Жанр: фантастика, фэнтези, боевик, приключения
Год выпуска: 2013
Продолжительность: 02:11:17-Перевод: Субтитры
Любительский (многоголосый, закадровый)
Субтитры: русские,
английские,
Режиссер: Гильермо дель Торо / Guillermo del Toro
В ролях:
Чарли Ханнэм (Raleigh Becket), Идрис Эльба (Stacker Pentecost), Ринко Кикути (Mako Mori), Роберт Казински (Chuck Hansen), Макс Мартини (Herc Hansen), Чарли Дэй (Dr. Newton Geiszler), Берн Горман (Gottlieb), Клифтон Коллинз мл. (Ops Tendo Choi), Рон Перлман (Hannibal Chau), Диего Клаттенхофф (Yancy Becket), Брэд Хенке (Construction Foreman), Ларри Джо Кэмпбелл (Construction Worker)
Дублёры: Василий Дахненко (Raleigh Becket), Алексей Рязанцев (Stacker Pentecost), Вероника Саркисова (Mako Mori), Илья Исаев (Chuck Hansen), Владимир Зайцев (Herc Hansen), Илья Хвостиков (Dr. Newton Geiszler), Евгений Вальц (Gottlieb), Даниил Эльдаров (Ops Tendo Choi), Владимир Еремин (Hannibal Chau), Александр Дзюба (Yancy Becket), Валерий Сторожик (American UN Representative), Игорь Старосельцев (British UN Representative)-Описание: Когда из морских глубин поднялись легионы чудовищ, известных как Кайдзу, началась война, которой суждено было забрать миллионы жизней и свести «человеческие ресурсы» почти к нулю всего за несколько лет. Чтобы сражаться с пришельцами, было создано специальное оружие: огромные роботы, названные Джегерами, они управлялись одновременно двумя пилотами, чьи сознания соединены с помощью нейронной связи. Но даже Джегеры оказываются почти бессильны перед лицом безжалостных Кайдзу. На грани поражения у защитников человечества нет выбора, кроме как обратиться к двум весьма сомнительным героям - никому не нужному бывшему пилоту и неопытному стажеру - которые объединились, чтобы повести в бой некогда легендарного, но сейчас устаревшего Джегера. Вместе они оказываются единственной надеждой человечества, последним препятствием перед надвигающимся апокалипсисом.-

MPAA: PG-13 - Детям до 13 лет просмотр не желателен-Качество: BDRip
Контейнер: MKV
Сэмпл
Видео: AVC, 1280x720 (16:9), 6000 kbps, 23,976 fps, 0,272 bpp
Аудио №1: английский / DTS / 5.1 / 48 kHz / 1510 kbps / 24 bit
Аудио №2: русский / AC3 / 5.1 / 48 kHz / 640 kbps / 16 bit |MVO|
Аудио №3: английский / Vorbis / 2.0 / 48 kHz / 64 kbps / |Комментарии|-

Скриншоты

Media Info

General
Unique ID : 233735545838351384676070425162367382385 (0xAFD7D4245B9FC6E2BBD6B6AB45383371)
Complete name : D:\Фильмы\Pacific.Rim.2013.720p.BDRip.MVO.Orig.Subs.mkv
Format : Matroska
Format version : Version 4 / Version 2
File size : 7.53 GiB
Duration : 2h 11mn
Overall bit rate mode : Variable
Overall bit rate : 8 208 Kbps
Movie name : Pacific Rim 2013 BDRip720p
Encoded date : UTC 2013-10-06 17:50:43
Writing application : mkvmerge v6.2.0 ('Promised Land') built on Apr 28 2013 12:22:01
Writing library : libebml v1.3.0 + libmatroska v1.4.0
Video
ID : 1
Format : AVC
Format/Info : Advanced Video Codec
Format profile : High@L4.1
Format settings, CABAC : Yes
Format settings, ReFrames : 9 frames
Codec ID : V_MPEG4/ISO/AVC
Duration : 2h 11mn
Bit rate : 6 000 Kbps
Width : 1 280 pixels
Height : 720 pixels
Display aspect ratio : 16:9
Frame rate mode : Constant
Frame rate : 23.976 fps
Color space : YUV
Chroma subsampling : 4:2:0
Bit depth : 8 bits
Scan type : Progressive
Bits/(Pixel*Frame) : 0.272
Stream size : 5.35 GiB (71%)
Writing library : x264 core 132 r2323+704+51 d571b1c tMod [8-bit@4:2:0 X86_64]
Encoding settings : cabac=1 / ref=9 / deblock=1:-3:-3 / analyse=0x3:0x113 / me=umh / subme=11 / psy=1 / fade_compensate=0.00 / psy_rd=1.05:0.00 / mixed_ref=1 / me_range=32 / chroma_me=1 / trellis=2 / 8x8dct=1 / cqm=0 / deadzone=21,11 / fast_pskip=0 / chroma_qp_offset=-2 / threads=18 / lookahead_threads=3 / sliced_threads=0 / nr=0 / decimate=0 / interlaced=0 / bluray_compat=0 / constrained_intra=0 / fgo=0 / bframes=8 / b_pyramid=2 / b_adapt=2 / b_bias=0 / direct=3 / weightb=1 / open_gop=0 / weightp=2 / keyint=240 / keyint_min=24 / scenecut=40 / intra_refresh=0 / rc_lookahead=240 / rc=2pass / mbtree=1 / bitrate=6000 / ratetol=1.0 / qcomp=0.70 / qpmin=0 / qpmax=69 / qpstep=4 / cplxblur=20.0 / qblur=0.5 / ip_ratio=1.10 / aq=4:0.85 / aq-sensitivity=10.00 / aq-factor=1.00:1.00:1.00 / aq2=0 / aq3=0
Language : English
Default : Yes
Forced : No
Audio #1
ID : 2
Format : DTS
Format/Info : Digital Theater Systems
Mode : 16
Format settings, Endianness : Big
Codec ID : A_DTS
Duration : 2h 11mn
Bit rate mode : Constant
Bit rate : 1 509 Kbps
Channel count : 6 channels
Channel positions : Front: L C R, Side: L R, LFE
Sampling rate : 48.0 KHz
Bit depth : 24 bits
Compression mode : Lossy
Stream size : 1.38 GiB (18%)
Title : Orig
Language : English
Default : No
Forced : No
Audio #2
ID : 3
Format : Vorbis
Format settings, Floor : 1
Codec ID : A_VORBIS
Duration : 2h 11mn
Bit rate mode : Variable
Bit rate : 64.0 Kbps
Channel count : 2 channels
Sampling rate : 48.0 KHz
Compression mode : Lossy
Stream size : 60.1 MiB (1%)
Title : Commentary
Writing library : aoTuV 20110424 (UTC 2011-04-24)
Language : English
Default : No
Forced : No
Audio #3
ID : 4
Format : AC-3
Format/Info : Audio Coding 3
Mode extension : CM (complete main)
Format settings, Endianness : Big
Codec ID : A_AC3
Duration : 2h 11mn
Bit rate mode : Constant
Bit rate : 640 Kbps
Channel count : 6 channels
Channel positions : Front: L C R, Side: L R, LFE
Sampling rate : 48.0 KHz
Bit depth : 16 bits
Compression mode : Lossy
Stream size : 601 MiB (8%)
Title : MVO
Language : Russian
Default : Yes
Forced : Yes
Text #1
ID : 5
Format : UTF-8
Codec ID : S_TEXT/UTF8
Codec ID/Info : UTF-8 Plain Text
Language : Russian
Default : No
Forced : No
Text #2
ID : 6
Format : UTF-8
Codec ID : S_TEXT/UTF8
Codec ID/Info : UTF-8 Plain Text
Language : English
Default : No
Forced : No
Скачать

Скачать торрент!

Как скачивать? · Что такое торрент? · Рейтинг и ограничения

Сайт не распространяет и не хранит электронные версии произведений, а лишь предоставляет доступ к создаваемому пользователями каталогу ссылок на торрент-файлы, которые содержат только списки хеш-сумм

[Профиль] [ЛС]
Показать сообщения:    
Ответить на тему

Текущее время: Сегодня 02:15

Часовой пояс: GMT + 4



Вы не можете начинать темы
Вы не можете отвечать на сообщения
Вы не можете редактировать свои сообщения
Вы не можете удалять свои сообщения
Вы не можете голосовать в опросах
Вы не можете прикреплять файлы к сообщениям
Вы не можете скачивать файлы