Признания отвергнутой женщины / The Sweeter Side of Life (Майкл Дамиан / Maikl Damian) [2013, США, комедия, DVDRip] MVO

Ответить на тему
 
Автор Сообщение

user ®

Стаж: 7 лет 7 месяцев

Сообщений: 20008

Пост Пост: #1 от 07-Окт-2013 01:15

[Цитировать]

Признания отвергнутой женщины / The Sweeter Side of Life
Страна: США
Жанр: комедия
Год выпуска: 2013
Продолжительность: 01:29:06
Перевод: Профессиональный (многоголосый закадровый)
Cубтитры: нет
Режиссер: Майкл Дамиан / Maikl Damian
В ролях: Кэтрин Моррис, Джеймс Бест, Аластер Маккензи, Steve Varnom, Сэм Дуглас, Стефен Хоган, Джейн Марч, Christine Oram, Джером Холдер, Джеффри Бертон
Описание: Перед избалованной деньгами домохозяйкой с Манхетена возникает дилемма: муж внезапно бросает её и оставляет без денег. Находясь в безвыходном положении, она решает устроиться в пекарню в захолустном районе. Вскоре становится ясно, что в этих новых условиях её жизнь становится гораздо интереснее и полнее…
Доп. информация:


Сэмпл: http://multi-up.com/910019
Качество видео: DVDRip
Формат видео: AVI
Видео: XviD, 1802 Kb/s, 720x400, 23.976fps
Аудио: Russia, Dolby, AC3 48000Hz, stereo, 192kbps
Аудио 2: English, Dolby, AC3 48000Hz, stereo, 192kbps

MediaInfo

General
Complete name : C:\_acestream_cache_\The.Sweeter.Side.of.Life.2013.P.DVDRip.1400MB.avi
Format : AVI
Format/Info : Audio Video Interleave
File size : 1.37 GiB
Duration : 1h 29mn
Overall bit rate : 2 201 Kbps
Writing application : VirtualDubMod 1.5.10.3 | www.virtualdub-fr.org || (build 2550/release)
Writing library : VirtualDubMod build 2550/release
Video
ID : 0
Format : MPEG-4 Visual
Format profile : Advanced Simple@L5
Format settings, BVOP : Yes
Format settings, QPel : No
Format settings, GMC : No warppoints
Format settings, Matrix : Custom
Codec ID : XVID
Codec ID/Hint : XviD
Duration : 1h 29mn
Bit rate : 1 803 Kbps
Width : 720 pixels
Height : 400 pixels
Display aspect ratio : 16:9
Frame rate : 23.976 fps
Color space : YUV
Chroma subsampling : 4:2:0
Bit depth : 8 bits
Scan type : Progressive
Compression mode : Lossy
Bits/(Pixel*Frame) : 0.261
Stream size : 1.12 GiB (82%)
Writing library : XviD 1.2.1 (UTC 2008-12-04)
Audio #1
ID : 1
Format : AC-3
Format/Info : Audio Coding 3
Mode extension : CM (complete main)
Format settings, Endianness : Big
Codec ID : 2000
Duration : 1h 29mn
Bit rate mode : Constant
Bit rate : 192 Kbps
Channel(s) : 2 channels
Channel positions : Front: L R
Sampling rate : 48.0 KHz
Bit depth : 16 bits
Compression mode : Lossy
Stream size : 122 MiB (9%)
Alignment : Split accross interleaves
Interleave, duration : 42 ms (1.00 video frame)
Interleave, preload duration : 500 ms
Audio #2
ID : 2
Format : AC-3
Format/Info : Audio Coding 3
Mode extension : CM (complete main)
Format settings, Endianness : Big
Codec ID : 2000
Duration : 1h 29mn
Bit rate mode : Constant
Bit rate : 192 Kbps
Channel(s) : 2 channels
Channel positions : Front: L R
Sampling rate : 48.0 KHz
Bit depth : 16 bits
Compression mode : Lossy
Stream size : 122 MiB (9%)
Alignment : Split accross interleaves
Interleave, duration : 42 ms (1.00 video frame)
Interleave, preload duration : 500 ms

Скриншот c названием фильма

Скриншоты

Скачать

Скачать торрент!

Как скачивать? · Что такое торрент? · Рейтинг и ограничения

Сайт не распространяет и не хранит электронные версии произведений, а лишь предоставляет доступ к создаваемому пользователями каталогу ссылок на торрент-файлы, которые содержат только списки хеш-сумм

[Профиль] [ЛС]
Показать сообщения:    
Ответить на тему

Текущее время: Сегодня 12:32

Часовой пояс: GMT + 4



Вы не можете начинать темы
Вы не можете отвечать на сообщения
Вы не можете редактировать свои сообщения
Вы не можете удалять свои сообщения
Вы не можете голосовать в опросах
Вы не можете прикреплять файлы к сообщениям
Вы не можете скачивать файлы