Одинокий рейнджер / The Lone Ranger (Гор Вербински / Gore Verbinski) [ 2013, США, вестерн, приключения, боевик, BDRip-AVC] Dub + Eng, Sub (Rus, Eng)

Ответить на тему
 
Автор Сообщение

user ®

Стаж: 7 лет 7 месяцев

Сообщений: 20008

Пост Пост: #1 от 07-Окт-2013 01:15

[Цитировать]

Одинокий рейнджерThe Lone Ranger«Никогда не снимай маску»- Страна: США
Жанр: вестерн, приключения, боевик, комедия
Год выпуска: 2013
Продолжительность: 02:29:33-Перевод: Профессиональный (полное дублирование)
Оригинальная аудиодорожка:английский.
Субтитры: русские (Forced), русские, английские (Forced), английские (SDH).
Режиссер: Гор Вербински / Gore Verbinski
В ролях:
Джонни Депп (Tonto), Арми Хаммер (John Reid (Lone Ranger)), Том Уилкинсон (Latham Cole), Уильям Фихтнер (Butch Cavendish), Барри Пеппер (Fuller), Джеймс Бэдж Дэйл (Dan Reid), Хелена Бонем Картер (Red Harrington), Рут Уилсон (Rebecca Reid), Брайант Принц (Danny), Мэйсон Кук (Will), ДжейДи Каллам (Wendell), Саджино Грант (Chief Big Bear)
Дублёры: Александр Баргман (Tonto), Валерий Смекалов (John Reid (Lone Ranger)), Виктор Костецкий (Latham Cole), Александр Аравушкин (Butch Cavendish), Сергей Дьячков (Fuller), Борис Хасанов (Dan Reid), Елена Шульман (Red Harrington), Марина Гладкая (Rebecca Reid), Валерий Никитенко (Chief Big Bear), Александр Трофимов (Barret), Николай Федорцов (Collins)-Описание: История блюстителя закона Джона Рида, который с помощью индейца Тонто стал легендарным мстителем в маске, стоящим на защите справедливости. Тонто с юмором и небылицами повествует о тех приключениях, которые пришлось пережить двум непохожим друг на друга героям, сведенным судьбой для того, чтобы вместе сражаться против общего врага. Им приходится противостоять жадности и коррупции во времена, когда появление первых железных дорог изменило представление о власти и могуществе в мире.--
MPAA: PG-13 - Детям до 13 лет просмотр не желателен-Качество: BDRip-AVC
Контейнер: MKV
Видео: AVC, 1152x480 (2.40:1), 3282 kbps, 23,976 fps, 0,248 bpp
Аудио №1: русский / AC3 / 5.1 / 48 kHz / 448 kbps / Dub
Аудио №2: русский / AC3 / 5.1 / 48 kHz / 448 kbps / Eng
Субтитры: русские (Forced), русские, английские (Forced), английские (SDH).
Навигация по главам: есть
......................................Source........................................................................BDrip-AVC.......................................


-

Media Info

X264

x264 [info]: frame I:2022 Avg QP:15.79 size: 89495 PSNR Mean Y:47.24 U:51.31 V:51.74 Avg:48.23 Global:47.18
x264 [info]: frame P:52901 Avg QP:18.14 size: 34129 PSNR Mean Y:45.30 U:50.36 V:50.80 Avg:46.42 Global:45.20
x264 [info]: frame B:160213 Avg QP:20.66 size: 10581 PSNR Mean Y:44.65 U:50.12 V:50.61 Avg:45.82 Global:44.41
x264 [info]: consecutive B-frames: 3.2% 4.1% 14.0% 27.7% 17.9% 24.7% 4.0% 1.5% 1.0% 0.6% 0.4% 0.2% 0.3% 0.5%
x264 [info]: mb I I16..4: 8.1% 66.4% 25.4%
x264 [info]: mb P I16..4: 1.4% 14.1% 2.5% P16..4: 35.5% 27.3% 15.7% 0.0% 0.0% skip: 3.5%
x264 [info]: mb B I16..4: 0.1% 1.1% 0.3% B16..8: 37.6% 13.0% 4.2% direct: 6.6% skip:37.1% L0:40.2% L1:42.0% BI:17.8%
x264 [info]: 8x8 transform intra:75.6% inter:56.0%
x264 [info]: direct mvs spatial:98.6% temporal:1.4%
x264 [info]: coded y,uvDC,uvAC intra: 89.1% 75.2% 49.7% inter: 29.2% 17.0% 7.4%
x264 [info]: i16 v,h,dc,p: 29% 13% 15% 42%
x264 [info]: i8 v,h,dc,ddl,ddr,vr,hd,vl,hu: 11% 11% 8% 8% 12% 12% 13% 11% 14%
x264 [info]: i4 v,h,dc,ddl,ddr,vr,hd,vl,hu: 10% 9% 4% 9% 15% 14% 14% 11% 14%
x264 [info]: i8c dc,h,v,p: 42% 28% 18% 12%
x264 [info]: Weighted P-Frames: Y:5.1% UV:2.4%
x264 [info]: ref P L0: 47.3% 12.7% 16.8% 6.0% 5.1% 3.5% 3.2% 1.8% 1.7% 1.5% 0.4% 0.0%
x264 [info]: ref B L0: 74.2% 12.1% 5.2% 2.8% 1.9% 1.6% 1.2% 0.6% 0.3%
x264 [info]: ref B L1: 92.6% 7.4%
x264 [info]: SSIM Mean Y:0.9838216 (17.911db)
x264 [info]: PSNR Mean Y:44.836 U:50.191 V:50.671 Avg:45.993 Global:44.609 kb/s:3282.37
x264 [total]: encoded 215136 frames, 7.95 fps, 3282.37 kb/s
General
Unique ID : 182137233938442622616025722301403238476 (0x89065AF3D37B11E4A1C442B9F952104C)
Complete name : D:\The Lone Ranger.2013.BDrip-AVC.Froloff777.mkv
Format : Matroska
Format version : Version 4 / Version 2
File size : 4.37 GiB
Duration : 2h 29mn
Overall bit rate : 4 181 Kbps
Encoded date : UTC 2013-10-06 02:35:05
Writing application : mkvmerge v6.1.0 ('Old Devil') built on Mar 4 2013 09:10:42
Writing library : libebml v1.3.0 + libmatroska v1.4.0
Attachment : Yes
Video
ID : 1
Format : AVC
Format/Info : Advanced Video Codec
Format profile : High@L4.1
Format settings, CABAC : Yes
Format settings, ReFrames : 10 frames
Codec ID : V_MPEG4/ISO/AVC
Duration : 2h 29mn
Bit rate : 3 282 Kbps
Width : 1 152 pixels
Height : 480 pixels
Display aspect ratio : 2.40:1
Frame rate mode : Constant
Frame rate : 23.976 fps
Color space : YUV
Chroma subsampling : 4:2:0
Bit depth : 8 bits
Scan type : Progressive
Bits/(Pixel*Frame) : 0.248
Stream size : 3.34 GiB (77%)
Title : The Lone Ranger
Writing library : x264 core 130 r2273 b3065e6
Encoding settings : cabac=1 / ref=10 / deblock=1:-3:-2 / analyse=0x3:0x113 / me=umh / subme=10 / psy=1 / psy_rd=1.00:0.10 / mixed_ref=1 / me_range=32 / chroma_me=1 / trellis=2 / 8x8dct=1 / cqm=0 / deadzone=21,11 / fast_pskip=0 / chroma_qp_offset=-3 / threads=6 / lookahead_threads=1 / sliced_threads=0 / nr=0 / decimate=0 / interlaced=0 / bluray_compat=0 / constrained_intra=0 / bframes=13 / b_pyramid=2 / b_adapt=2 / b_bias=0 / direct=3 / weightb=1 / open_gop=0 / weightp=2 / keyint=250 / keyint_min=24 / scenecut=40 / intra_refresh=0 / rc_lookahead=60 / rc=2pass / mbtree=0 / bitrate=3282 / ratetol=1.0 / qcomp=0.65 / qpmin=0 / qpmax=69 / qpstep=4 / cplxblur=20.0 / qblur=0.5 / vbv_maxrate=50000 / vbv_bufsize=62500 / nal_hrd=none / ip_ratio=1.20 / pb_ratio=1.35 / aq=2:0.90
Language : English
Default : Yes
Forced : No
Audio #1
ID : 2
Format : AC-3
Format/Info : Audio Coding 3
Mode extension : CM (complete main)
Format settings, Endianness : Big
Codec ID : A_AC3
Duration : 2h 29mn
Bit rate mode : Constant
Bit rate : 448 Kbps
Channel count : 6 channels
Channel positions : Front: L C R, Side: L R, LFE
Sampling rate : 48.0 KHz
Bit depth : 16 bits
Compression mode : Lossy
Stream size : 479 MiB (11%)
Title : Dub | DD 5.1 @ 448 kbps - BD EUR
Language : Russian
Default : Yes
Forced : Yes
Audio #2
ID : 3
Format : AC-3
Format/Info : Audio Coding 3
Mode extension : CM (complete main)
Format settings, Endianness : Big
Codec ID : A_AC3
Duration : 2h 29mn
Bit rate mode : Constant
Bit rate : 448 Kbps
Channel count : 6 channels
Channel positions : Front: L C R, Side: L R, LFE
Sampling rate : 48.0 KHz
Bit depth : 16 bits
Compression mode : Lossy
Stream size : 479 MiB (11%)
Title : Original | DD 5.1 @ 448 kbps - BD EUR
Language : Russian
Default : No
Forced : No
Text #1
ID : 4
Format : UTF-8
Codec ID : S_TEXT/UTF8
Codec ID/Info : UTF-8 Plain Text
Title : Forced
Language : Russian
Default : Yes
Forced : Yes
Text #2
ID : 5
Format : UTF-8
Codec ID : S_TEXT/UTF8
Codec ID/Info : UTF-8 Plain Text
Language : Russian
Default : No
Forced : No
Text #3
ID : 6
Format : UTF-8
Codec ID : S_TEXT/UTF8
Codec ID/Info : UTF-8 Plain Text
Title : Forced
Language : English
Default : No
Forced : No
Text #4
ID : 7
Format : UTF-8
Codec ID : S_TEXT/UTF8
Codec ID/Info : UTF-8 Plain Text
Title : SDH
Language : English
Default : No
Forced : No
Menu
00:00:00.000 : en:00:00:00.000
00:08:16.121 : en:00:08:16.121
00:13:38.776 : en:00:13:38.776
00:24:51.407 : en:00:24:51.407
00:29:03.033 : en:00:29:03.033
00:32:05.841 : en:00:32:05.841
00:40:32.013 : en:00:40:32.013
00:45:29.644 : en:00:45:29.644
00:53:29.665 : en:00:53:29.665
01:01:05.662 : en:01:01:05.662
01:10:01.614 : en:01:10:01.614
01:16:12.318 : en:01:16:12.318
01:24:45.455 : en:01:24:45.455
01:28:39.731 : en:01:28:39.731
01:35:35.188 : en:01:35:35.188
01:41:13.985 : en:01:41:13.985
01:46:35.806 : en:01:46:35.806
01:50:02.179 : en:01:50:02.179
01:53:55.203 : en:01:53:55.203
01:56:15.260 : en:01:56:15.260
02:01:51.095 : en:02:01:51.095
02:12:07.211 : en:02:12:07.211
02:17:13.934 : en:02:17:13.934
02:20:20.287 : en:02:20:20.287

Скриншоты

Скачать

Скачать торрент!

Как скачивать? · Что такое торрент? · Рейтинг и ограничения

Сайт не распространяет и не хранит электронные версии произведений, а лишь предоставляет доступ к создаваемому пользователями каталогу ссылок на торрент-файлы, которые содержат только списки хеш-сумм

[Профиль] [ЛС]
Показать сообщения:    
Ответить на тему

Текущее время: Сегодня 20:09

Часовой пояс: GMT + 4



Вы не можете начинать темы
Вы не можете отвечать на сообщения
Вы не можете редактировать свои сообщения
Вы не можете удалять свои сообщения
Вы не можете голосовать в опросах
Вы не можете прикреплять файлы к сообщениям
Вы не можете скачивать файлы