Дворец / The Palace / Gong Suo Chen Xiang (Аньцзы Пань / Анзи Пан / Anzi Pan) [Китай, 2013, Драма, романтика, исторический HDRip] Original CHI + SUB RUS [Полухардсаб]

Ответить на тему
 
Автор Сообщение

user ®

Стаж: 11 лет

Сообщений: 15151

Пост Пост: #1 от 06-Окт-2013 20:00

[Цитировать]

宮鎖沉香 / Дворец / The Palace / Gong Suo Chen Xiang
Год выпуска: 2013
Страна: Китай
Жанр:Драма, романтика, исторический
Тип: Полнометражный фильм
Продолжительность: 115 минут
Хардсаб: Китайский
Перевод: Отключаемые Русские субтитры, Русский полухардсаб
Звуковая дорожка: Оригинальная

Перевод и оформление: Chibi-chan
Режиcсёр: Anzi Pan
В ролях
# Чжоу Дун Сюэ (Zhou Dong Xue ) - Чжаоцзя Чэнь Сян
# Чэнь Сяо (Chen Xiao) - 13-й принц Иньсян
# Лу И (Lu Yi) - 4-й принц Иньчжэнь
# Чжу Цзы Сяо (Zhu Zi Xiao) - 9й- принц
# Чжао Ли Ин (Zhao Li Ying) - Лю Ли
# Дикки Чунг - главный евнух
# Чжао Вэнь Сюань (Zhao Wen Xuan) - император Канси
Описание: Чэнь Сян и Лю Ли в свои 12 лет попадают во дворец в качестве служанок, любую из них в любой момент может приметить император или принцы и тогда их ждёт сладкая жизнь наложницы или супруги. Они становятся подругами и дружба их длится ровно до момента, когда им приходится делить 13-го принца.
Это, своего рода, спинофф сериала Дворец. История любви 13-го принца и Чэнь Сян. Любовь, интриги, предательства и разлуки.
Если смотреть с точки зрения истории - бред полнейший. А как наивная история любви с элементами триллера, очень даже ничего. Я ожидала меньшего от этого фильма

Качество: HDRip
Формат: AVI
Видео кодек: H264
Аудио кодек: AC-3
Видео: 960 x 540, 50.000 fps, 2100 kbit/s
Аудио: AC-3, 192 kbit/s, 48.0 KHz, 2 channels
СЭМПЛ

Медиаинфо

General
Complete name : D:\!!!Переводы\!!!Текущие переводы\[RINGU]The Palace 2013.avi
Format : AVI
Format/Info : Audio Video Interleave
File size : 1.77 GiB
Duration : 1h 49mn
Overall bit rate : 2 302 Kbps
Writing application : VirtualDubMod 1.5.10.2 (build 2540/release)
Writing library : VirtualDub build 32839/release
Video
ID : 0
Format : AVC
Format/Info : Advanced Video Codec
Format profile : High@L4.1
Format settings, CABAC : Yes
Format settings, ReFrames : 3 frames
Codec ID : H264
Duration : 1h 49mn
Bit rate : 2 100 Kbps
Width : 960 pixels
Height : 540 pixels
Display aspect ratio : 16:9
Frame rate : 50.000 fps
Color space : YUV
Chroma subsampling : 4:2:0
Bit depth : 8 bits
Scan type : Progressive
Bits/(Pixel*Frame) : 0.081
Stream size : 1.60 GiB (91%)
Writing library : x264 core 114 r1913bm 5fd3dce
Encoding settings : cabac=1 / ref=3 / deblock=1:0:0 / analyse=0x3:0x113 / me=hex / subme=7 / psy=1 / psy_rd=1.00:0.00 / mixed_ref=1 / me_range=16 / chroma_me=1 / trellis=1 / 8x8dct=1 / cqm=0 / deadzone=21,11 / fast_pskip=1 / chroma_qp_offset=-2 / threads=4 / sliced_threads=1 / slices=4 / nr=0 / decimate=1 / interlaced=0 / constrained_intra=0 / bframes=0 / weightp=2 / keyint=250 / keyint_min=25 / scenecut=40 / intra_refresh=0 / rc=abr / mbtree=0 / bitrate=2100 / ratetol=1.0 / qcomp=0.60 / qpmin=0 / qpmax=69 / qpstep=4 / ip_ratio=1.40 / aq=1:1.00
Audio
ID : 1
Format : AC-3
Format/Info : Audio Coding 3
Mode extension : CM (complete main)
Codec ID : 2000
Duration : 1h 49mn
Bit rate mode : Constant
Bit rate : 192 Kbps
Channel(s) : 2 channels
Channel positions : Front: L R
Sampling rate : 48.0 KHz
Bit depth : 16 bits
Compression mode : Lossy
Stream size : 151 MiB (8%)
Alignment : Split accross interleaves
Interleave, duration : 20 ms (1.00 video frame)
Interleave, preload duration : 500 ms

Скриншоты


Скачать

Скачать торрент! Дворец / The Palace / Gong Suo Chen Xiang (Аньцзы Пань / Анзи Пан / Anzi Pan) [Китай, 2013, Драма, романтика, исторический HDRip] Original CHI + SUB RUS [Полухардсаб]

Как скачивать? · Что такое торрент? · Рейтинг и ограничения

Сайт не распространяет и не хранит электронные версии произведений, а лишь предоставляет доступ к создаваемому пользователями каталогу ссылок на торрент-файлы, которые содержат только списки хеш-сумм

[Профиль] [ЛС]
Показать сообщения:    
Ответить на тему

Текущее время: Сегодня 03:49

Часовой пояс: GMT + 4



Вы не можете начинать темы
Вы не можете отвечать на сообщения
Вы не можете редактировать свои сообщения
Вы не можете удалять свои сообщения
Вы не можете голосовать в опросах
Вы не можете прикреплять файлы к сообщениям
Вы не можете скачивать файлы