Ван Хельсинг / Van Helsing (Стивен Соммерс / Stephen Sommers) [2004, США, Чехия, Фэнтези, боевик, триллер, приключения, BDRemux 1080p] Dub (R5) + DVO (Tycoon-studio) + 3х AVO (Гаврилов, Живов, Рудой) + 2х Ukr + Original (Eng) + Sub (Rus / Ukr / Eng)

Ответить на тему
 
Автор Сообщение

user ®

Стаж: 7 лет 7 месяцев

Сообщений: 20008

Пост Пост: #1 от 06-Окт-2013 20:00

[Цитировать]

Ван Хельсинг / Van Helsing
«The One Name They All Fear»
- Страна: США, Чехия
Студии: Carpathian Pictures, Stillking Films, The Sommers Company, Universal Pictures
Жанр: Фэнтези, боевик, триллер, детектив, приключения
Год выпуска: 2004
Продолжительность: 02:11:37
Перевод:
  • Профессиональный (полное дублирование) R5
  • Профессиональный (двухголосый закадровый) Tycoon-studio
  • Авторский (одноголосый закадровый) А.Гаврилов
  • Авторский (одноголосый закадровый) Ю.Живов
  • Авторский (одноголосый закадровый) Е.Рудой
Cубтитры: русские (full, full (Ганс)), украинские (full), английские (full, SDH, Commentary)
Оригинальная аудиодорожка: английский-Режиссер: Стивен Соммерс / Stephen Sommers
В ролях: Хью Джекман (Hugh Jackman), Кейт Бекинсейл (Kate Beckinsale), Ричард Роксбург (Richard Roxburgh), Дэвид Уэнэм (David Wenham), Шулер Хенсли (Shuler Hensley), Елена Анайя (Elena Anaya), Уилл Кемп (Will Kemp), Кевин Дж. О’Коннор (Kevin J. O'Connor), Алан Армстронг (Alun Armstrong), Сильвия Коллока (Silvia Colloca), Джози Мэран (Josie Maran) и др.-Описание: Глубоко в Карпатах лежит таинственная страна Трансильвания — мир, в котором зло встречается на каждом шагу, мир, в котором опасность оживает с заходом солнца, и где монстры, живущие в глубине человеческих кошмаров, обретают форму. В этот мир попадает легендарный охотник на чудовищ Ван Хельсинг, рождённый на страницах романа «Дракула» Брэма Стокера.
В своей непрерывной битве против сил зла и за освобождение мира от порождений ада, Ван Хельсинг, по заданию секретного общества, отправляется в Трансильванию, чтобы скрестить оружие со смертельно опасным, наделённым неведомой силой графом Дракулой. На помощь ему внезапно приходит бесстрашная Анна Валери, поставившая целью избавить свою семью от векового проклятья, наложенного убитым вампиром.
- -Тип релиза: BDRemux 1080p
Исходник: BDRemuxes 1080p
Контейнер: MKV
Видео: MPEG-4 AVC Video / 26992 kbps / 1080p / 23,976 fps / 16:9 / High Profile 4.1
Аудио #1: Russian: 48 kHz, AC3, 3/2 (L,C,R,l,r) + LFE ch, ~448.00 kbps avg - [Dub, R5]
Аудио #2: Russian: 48 kHz, AC3, 3/2 (L,C,R,l,r) + LFE ch, ~448.00 kbps avg - [DVO, Tycoon-studio]
Аудио #3: Russian: DTS-HD Master Audio 5.1 / (48 kHz / 4533 kbps / 24-bit) (DTS Core: 5.1 / 48 kHz / 1509 kbps / 24-bit) - [AVO, А.Гаврилов]
Аудио #4: Russian: DTS-HD Master Audio 5.1 / (48 kHz / 4501 kbps / 24-bit) (DTS Core: 5.1 / 48 kHz / 1509 kbps / 24-bit) - [AVO, Ю.Живов]
Аудио #5: Russian: DTS-HD Master Audio 5.1 / (48 kHz / 4506 kbps / 24-bit) (DTS Core: 5.1 / 48 kHz / 1509 kbps / 24-bit) - [AVO, Е.Рудой]
Аудио #6: Ukrainian: 48 kHz, AC3, 3/2 (L,C,R,l,r) + LFE ch, ~448.00 kbps avg - [MVO, Так Треба Продакшн]
Аудио #7: Ukrainian: 48 kHz, AC3, 3/2 (L,C,R,l,r) + LFE ch, ~448.00 kbps avg - [DVO, Новий канал]
Аудио #8: English: DTS-HD Master Audio 5.1 / (48 kHz / 4565 kbps / 24-bit) (DTS Core: 5.1 / 48 kHz / 1509 kbps / 24-bit) - [Original]
Аудио #9: English: 48 kHz, AC3, 2/0 (L,R), ~192.00 kbps avg - [Audio Commentary with Director Stephen Sommers and Editor / Producer Bob Ducsay]
Аудио #10: English: 48 kHz, AC3, 2/0 (L,R), ~192.00 kbps avg - [Audio Commentary with Richard Roxburgh, Shuler Henley and Will Kemp]
Формат субтитров: softsub (SRT)
Чаптеры: Сохранены оригинальные чаптеры с Blu-Ray (28 подписанных глав)
-

Дополнительно

  • Дорожки №3 - 5 получены путем микширования чистого голоса с центром декодированного оригинала, взяты в сети.
  • Дорожка №2 (Tycoon-studio) имеет пустой канал LFE (к сожалению). В раздаче она в таком виде.
    ► Скачать дорожку (Tycoon-studio) с каналом LFE (из оригинала) можно тут. Межканальный рассинхрон к концу ~ 15 семплов (~ 1/3333 сек).

  • Русская дорога супер! (dts на R5 был отстойный) © HANSMER

-

-

MediaInfo

Format                                   : Matroska
Format version                           : Version 2
File size                                : 43.4 GiB
Duration                                 : 2h 11mn
Overall bit rate mode                    : Variable
Overall bit rate                         : 47.2 Mbps
Movie name                               : Arifis
Encoded date                             : UTC 2013-09-30 19:57:14
Writing application                      : mkvmerge v5.2.1 ('A Far Off Place') built on Jan  2 2012 23:21:10
Writing library                          : libebml v1.2.3 + libmatroska v1.3.0
Video
ID                                       : 1
Format                                   : AVC
Format/Info                              : Advanced Video Codec
Format profile                           : High@L4.1
Format settings, CABAC                   : Yes
Format settings, ReFrames                : 4 frames
Codec ID                                 : V_MPEG4/ISO/AVC
Duration                                 : 2h 11mn
Bit rate mode                            : Variable
Maximum bit rate                         : 35.0 Mbps
Width                                    : 1 920 pixels
Height                                   : 1 080 pixels
Display aspect ratio                     : 16:9
Frame rate mode                          : Constant
Frame rate                               : 23.976 fps
Color space                              : YUV
Chroma subsampling                       : 4:2:0
Bit depth                                : 8 bits
Scan type                                : Progressive
Title                                    : Van Helsing (Arifis)
Default                                  : Yes
Forced                                   : No
Color primaries                          : BT.709
Transfer characteristics                 : BT.709
Matrix coefficients                      : BT.709
Audio #1
ID                                       : 2
Format                                   : AC-3
Format/Info                              : Audio Coding 3
Mode extension                           : CM (complete main)
Format settings, Endianness              : Big
Codec ID                                 : A_AC3
Duration                                 : 2h 11mn
Bit rate mode                            : Constant
Bit rate                                 : 448 Kbps
Channel(s)                               : 6 channels
Channel positions                        : Front: L C R, Side: L R, LFE
Sampling rate                            : 48.0 KHz
Bit depth                                : 16 bits
Compression mode                         : Lossy
Stream size                              : 422 MiB (1%)
Title                                    : AC3 5.1 @ 448 kbps - Dub, R5
Language                                 : Russian
Default                                  : Yes
Forced                                   : No
Audio #2
ID                                       : 3
Format                                   : AC-3
Format/Info                              : Audio Coding 3
Mode extension                           : CM (complete main)
Format settings, Endianness              : Big
Codec ID                                 : A_AC3
Duration                                 : 2h 11mn
Bit rate mode                            : Constant
Bit rate                                 : 448 Kbps
Channel(s)                               : 6 channels
Channel positions                        : Front: L C R, Side: L R, LFE
Sampling rate                            : 48.0 KHz
Bit depth                                : 16 bits
Compression mode                         : Lossy
Stream size                              : 422 MiB (1%)
Title                                    : AC3 5.1 @ 448 kbps - DVO, Tycoon-studio
Language                                 : Russian
Default                                  : No
Forced                                   : No
Audio #3
ID                                       : 4
Format                                   : DTS
Format/Info                              : Digital Theater Systems
Format profile                           : MA / Core
Mode                                     : 16
Format settings, Endianness              : Big
Codec ID                                 : A_DTS
Duration                                 : 2h 11mn
Bit rate mode                            : Variable
Bit rate                                 : Unknown / 1 509 Kbps
Channel(s)                               : 6 channels
Channel positions                        : Front: L C R, Side: L R, LFE
Sampling rate                            : 48.0 KHz
Bit depth                                : 24 bits
Compression mode                         : Lossless / Lossy
Title                                    : DTS-HD MA 5.1 @ 4533 kbps - AVO, А.Гаврилов
Language                                 : Russian
Default                                  : No
Forced                                   : No
Audio #4
ID                                       : 5
Format                                   : DTS
Format/Info                              : Digital Theater Systems
Format profile                           : MA / Core
Mode                                     : 16
Format settings, Endianness              : Big
Codec ID                                 : A_DTS
Duration                                 : 2h 11mn
Bit rate mode                            : Variable
Bit rate                                 : Unknown / 1 509 Kbps
Channel(s)                               : 6 channels
Channel positions                        : Front: L C R, Side: L R, LFE
Sampling rate                            : 48.0 KHz
Bit depth                                : 24 bits
Compression mode                         : Lossless / Lossy
Title                                    : DTS-HD MA 5.1 @ 4501 kbps - AVO, Ю.Живов
Language                                 : Russian
Default                                  : No
Forced                                   : No
Audio #5
ID                                       : 6
Format                                   : DTS
Format/Info                              : Digital Theater Systems
Format profile                           : MA / Core
Mode                                     : 16
Format settings, Endianness              : Big
Codec ID                                 : A_DTS
Duration                                 : 2h 11mn
Bit rate mode                            : Variable
Bit rate                                 : Unknown / 1 509 Kbps
Channel(s)                               : 6 channels
Channel positions                        : Front: L C R, Side: L R, LFE
Sampling rate                            : 48.0 KHz
Bit depth                                : 24 bits
Compression mode                         : Lossless / Lossy
Title                                    : DTS-HD MA 5.1 @ 4506 kbps - AVO, Е.Рудой
Language                                 : Russian
Default                                  : No
Forced                                   : No
Audio #6
ID                                       : 7
Format                                   : AC-3
Format/Info                              : Audio Coding 3
Mode extension                           : CM (complete main)
Format settings, Endianness              : Big
Codec ID                                 : A_AC3
Duration                                 : 2h 11mn
Bit rate mode                            : Constant
Bit rate                                 : 448 Kbps
Channel(s)                               : 6 channels
Channel positions                        : Front: L C R, Side: L R, LFE
Sampling rate                            : 48.0 KHz
Bit depth                                : 16 bits
Compression mode                         : Lossy
Stream size                              : 422 MiB (1%)
Title                                    : AC3 5.1 @ 448 kbps - MVO, Так Треба Продакшн
Language                                 : Ukrainian
Default                                  : No
Forced                                   : No
Audio #7
ID                                       : 8
Format                                   : AC-3
Format/Info                              : Audio Coding 3
Mode extension                           : CM (complete main)
Format settings, Endianness              : Big
Codec ID                                 : A_AC3
Duration                                 : 2h 11mn
Bit rate mode                            : Constant
Bit rate                                 : 448 Kbps
Channel(s)                               : 6 channels
Channel positions                        : Front: L C R, Side: L R, LFE
Sampling rate                            : 48.0 KHz
Bit depth                                : 16 bits
Compression mode                         : Lossy
Stream size                              : 422 MiB (1%)
Title                                    : AC3 5.1 @ 448 kbps - DVO, Новий канал
Language                                 : Ukrainian
Default                                  : No
Forced                                   : No
Audio #8
ID                                       : 9
Format                                   : DTS
Format/Info                              : Digital Theater Systems
Format profile                           : MA / Core
Mode                                     : 16
Format settings, Endianness              : Big
Codec ID                                 : A_DTS
Duration                                 : 2h 11mn
Bit rate mode                            : Variable
Bit rate                                 : Unknown / 1 509 Kbps
Channel(s)                               : 6 channels
Channel positions                        : Front: L C R, Side: L R, LFE
Sampling rate                            : 48.0 KHz
Bit depth                                : 24 bits
Compression mode                         : Lossless / Lossy
Title                                    : DTS-HD MA 5.1 Original @ 4565 kbps
Language                                 : English
Default                                  : No
Forced                                   : No
Audio #9
ID                                       : 10
Format                                   : AC-3
Format/Info                              : Audio Coding 3
Format profile                           : Dolby Digital
Mode extension                           : CM (complete main)
Format settings, Endianness              : Big
Codec ID                                 : A_AC3
Duration                                 : 2h 11mn
Bit rate mode                            : Constant
Bit rate                                 : 192 Kbps
Channel(s)                               : 2 channels
Channel positions                        : Front: L R
Sampling rate                            : 48.0 KHz
Bit depth                                : 16 bits
Compression mode                         : Lossy
Stream size                              : 181 MiB (0%)
Title                                    : AC3 2.0 @ 192 kbps - Audio Commentary with Director Stephen Sommers and Editor / Producer Bob Ducsay
Language                                 : English
Default                                  : No
Forced                                   : No
Audio #10
ID                                       : 11
Format                                   : AC-3
Format/Info                              : Audio Coding 3
Format profile                           : Dolby Digital
Mode extension                           : CM (complete main)
Format settings, Endianness              : Big
Codec ID                                 : A_AC3
Duration                                 : 2h 11mn
Bit rate mode                            : Constant
Bit rate                                 : 192 Kbps
Channel(s)                               : 2 channels
Channel positions                        : Front: L R
Sampling rate                            : 48.0 KHz
Bit depth                                : 16 bits
Compression mode                         : Lossy
Stream size                              : 181 MiB (0%)
Title                                    : AC3 2.0 @ 192 kbps - Audio Commentary with Richard Roxburgh, Shuler Henley and Will Kemp
Language                                 : English
Default                                  : No
Forced                                   : No
Text #1
ID                                       : 12
Format                                   : UTF-8
Codec ID                                 : S_TEXT/UTF8
Codec ID/Info                            : UTF-8 Plain Text
Title                                    : Full Rus
Language                                 : Russian
Default                                  : No
Forced                                   : No
Text #2
ID                                       : 13
Format                                   : UTF-8
Codec ID                                 : S_TEXT/UTF8
Codec ID/Info                            : UTF-8 Plain Text
Title                                    : Full Rus [Ганс]
Language                                 : Russian
Default                                  : No
Forced                                   : No
Text #3
ID                                       : 14
Format                                   : UTF-8
Codec ID                                 : S_TEXT/UTF8
Codec ID/Info                            : UTF-8 Plain Text
Title                                    : Full Ukr
Language                                 : Ukrainian
Default                                  : No
Forced                                   : No
Text #4
ID                                       : 15
Format                                   : UTF-8
Codec ID                                 : S_TEXT/UTF8
Codec ID/Info                            : UTF-8 Plain Text
Title                                    : Full Eng
Language                                 : English
Default                                  : No
Forced                                   : No
Text #5
ID                                       : 16
Format                                   : UTF-8
Codec ID                                 : S_TEXT/UTF8
Codec ID/Info                            : UTF-8 Plain Text
Title                                    : SDH Eng
Language                                 : English
Default                                  : No
Forced                                   : No
Text #6
ID                                       : 17
Format                                   : UTF-8
Codec ID                                 : S_TEXT/UTF8
Codec ID/Info                            : UTF-8 Plain Text
Title                                    : Commentary with Director Stephen Sommers and Editor / Producer Bob Ducsay
Language                                 : English
Default                                  : No
Forced                                   : No
Text #7
ID                                       : 18
Format                                   : UTF-8
Codec ID                                 : S_TEXT/UTF8
Codec ID/Info                            : UTF-8 Plain Text
Title                                    : Commentary with Richard Roxburgh, Shuler Henley and Will Kemp
Language                                 : English
Default                                  : No
Forced                                   : No
Menu
00:00:00.000                             : :It's Alive
00:07:49.218                             : :The Vatican's Avenger
00:13:42.613                             : :The Order
00:20:14.503                             : :Werewolf Hunters
00:23:12.724                             : :Welcome to Transylvania
00:33:58.036                             : :His Name Is Van Helsing
00:38:22.257                             : :Looking for Answers
00:40:34.265                             : :Curse of the Werewolf
00:48:41.793                             : :Castle Frankenstein
00:53:18.862                             : :Dracula's Children
01:02:07.055                             : :Old Acquaintances
01:04:31.784                             : :Failure
01:08:42.952                             : :The Living Painting
01:09:54.982                             : :The Frankenstein Monster
01:14:17.703                             : :Hell on Wheels
01:18:55.313                             : :Mark of the Wolf
01:23:57.866                             : :The Monster's Ball
01:29:19.103                             : :Van Helsing's Vow
01:31:11.340                             : :The Door to Dracula
01:37:30.970                             : :The Cure
01:40:34.528                             : :Life for My Children
01:43:46.345                             : :You Can Go When You're Dead
01:45:56.808                             : :The Spawning
01:50:21.197                             : :The Only Way
01:55:16.075                             : :The Left Hand of God
01:57:08.396                             : :Sacrifice
01:58:42.240                             : :Reunion
02:02:01.188                             : :End Titles
-
Скачать

Скачать торрент!

Как скачивать? · Что такое торрент? · Рейтинг и ограничения

Сайт не распространяет и не хранит электронные версии произведений, а лишь предоставляет доступ к создаваемому пользователями каталогу ссылок на торрент-файлы, которые содержат только списки хеш-сумм

[Профиль] [ЛС]
Показать сообщения:    
Ответить на тему

Текущее время: Сегодня 17:41

Часовой пояс: GMT + 4



Вы не можете начинать темы
Вы не можете отвечать на сообщения
Вы не можете редактировать свои сообщения
Вы не можете удалять свои сообщения
Вы не можете голосовать в опросах
Вы не можете прикреплять файлы к сообщениям
Вы не можете скачивать файлы